Главная » Видео » Зарубежные фильмы » Багровая мята / Peppermint (2018) WEB-DL 720p от селезень | iTunes

Багровая мята / Peppermint (2018) WEB-DL 720p от селезень | iTunes

СКАЧАТЬ TORRENT ФАЙЛ

Информация о фильме
Название: Багровая мята
Оригинальное название: Peppermint
Год выхода: 2018
Жанр: Боевик, триллер, драма
Режиссер: Пьер Морель
В ролях: Дженнифер Гарнер, Джон Галлахер мл., Джон Ортис, Хуан Пабло Раба, Энни Айлонзех, Джефф Хефнер, Кэйли Флеминг, Эдди Шин, Метод Мэн, Тайсон Риттер

О фильме: Когда система закрывает глаза на убийство ее семьи, она решает вершить справедливость сама: очистить город от преступников и продажных полицейских, чтобы отомстить за любимых. Ведь месть — это блюдо, которое подают холодным. Холодным, как мороженое со вкусом мяты, которое так любила ее единственная дочь.

Страна: США, Гонконг
Студия: Huayi Brothers, Lakeshore Entertainment, STXfilms
Продолжительность: 01:41:37
Перевод: Дублированный | iTunes

Качество: WEB-DL 720p
Видео: MPEG-4 AVC, 1280×536, 4042 Кbit/s, 23.976 fps
Звук:
Аудио #01: 48 kHz, AC3, 5.1, 384 Kbps | iTunes | RUS |

Аудио #02: 48 kHz, AC3, 5.1, 384 Kbps | Оригинал | ENG |

Субтитры: Английские

MIGeneral
Unique ID : 243283241730775573317423618266985822694 (0xB706A5E4BFDD3E54C3C4D9BF8E0279E6)
Complete name : D:Video111Peppermint.2018.WEB-DL.720p.selezen.mkv
Format : Matroska
Format version : Version 4
File size : 3.42 GiB
Duration : 1 h 41 min
Overall bit rate : 4 812 kb/s
Movie name : Peppermint 2018 from селезень
Encoded date : UTC 2018-12-02 20:26:22
Writing application : mkvmerge v29.0.0 ('Like It Or Not') 64-bit
Writing library : libebml v1.3.6 + libmatroska v1.4.9

Video
ID : 1
Format : AVC
Format/Info : Advanced Video Codec
Format profile : Main@L3.1
Format settings : 2 Ref Frames
Format settings, CABAC : No
Format settings, ReFrames : 2 frames
Codec ID : V_MPEG4/ISO/AVC
Duration : 1 h 41 min
Bit rate : 4 042 kb/s
Width : 1 280 pixels
Height : 536 pixels
Display aspect ratio : 2.40:1
Frame rate mode : Constant
Frame rate : 23.976 (23976/1000) FPS
Color space : YUV
Chroma subsampling : 4:2:0
Bit depth : 8 bits
Scan type : Progressive
Bits/(Pixel*Frame) : 0.246
Stream size : 2.87 GiB (84%)
Language : English
Default : Yes
Forced : No
Color range : Limited
Color primaries : BT.709
Transfer characteristics : BT.709
Matrix coefficients : BT.709

Audio #1
ID : 2
Format : AC-3
Format/Info : Audio Coding 3
Commercial name : Dolby Digital
Codec ID : A_AC3
Duration : 1 h 41 min
Bit rate mode : Constant
Bit rate : 384 kb/s
Channel(s) : 6 channels
Channel layout : L R C LFE Ls Rs
Sampling rate : 48.0 kHz
Frame rate : 31.250 FPS (1536 SPF)
Bit depth : 16 bits
Compression mode : Lossy
Stream size : 279 MiB (8%)
Title : iTunes
Language : Russian
Service kind : Complete Main
Default : Yes
Forced : Yes

Audio #2
ID : 3
Format : AC-3
Format/Info : Audio Coding 3
Commercial name : Dolby Digital
Codec ID : A_AC3
Duration : 1 h 41 min
Bit rate mode : Constant
Bit rate : 384 kb/s
Channel(s) : 6 channels
Channel layout : L R C LFE Ls Rs
Sampling rate : 48.0 kHz
Frame rate : 31.250 FPS (1536 SPF)
Bit depth : 16 bits
Compression mode : Lossy
Stream size : 279 MiB (8%)
Title : Original
Language : English
Service kind : Complete Main
Default : No
Forced : No

Text
ID : 4
Format : UTF-8
Codec ID : S_TEXT/UTF8
Codec ID/Info : UTF-8 Plain Text
Duration : 1 h 40 min
Bit rate : 52 b/s
Count of elements : 1305
Stream size : 38.9 KiB (0%)
Title : SDH
Language : English
Default : No
Forced : No

Menu
00:00:00.000 : en:1
00:11:48.000 : en:2
00:22:54.000 : en:3
00:37:40.000 : en:4
00:52:25.000 : en:5
01:02:43.000 : en:6
01:14:12.000 : en:7
01:25:05.000 : en:8
01:34:40.000 : en:9

x

Не пропустите

Багровая мята / Peppermint (2018) BDRip 1080p от Generalfilm | iTunes

СКАЧАТЬ TORRENT ФАЙЛ Информация о фильме Название: багровая мята Оригинальное название: Peppermint Год выпуска: 2018 ...