Главная » Видео » Зарубежные фильмы » Багровая мята / Peppermint (2018) BDRip 1080p от Generalfilm | iTunes

Багровая мята / Peppermint (2018) BDRip 1080p от Generalfilm | iTunes

СКАЧАТЬ TORRENT ФАЙЛ

Информация о фильме
Название: багровая мята
Оригинальное название: Peppermint
Год выпуска: 2018
Страна: Гонконг, США
Жанр: Боевик, триллер, драма

Перевод: Дублированный [iTunes] Субтитры:Нет
Продолжительность: 01:42:02
Режиссер: Пьер Морель
В ролях: [

Дженнифер Гарнер (Riley North), Джон Галлахер мл. (Detective Stan Carmichael), Джон Ортис (Detective Moises Beltran), Хуан Пабло Раба (Diego Garcia), Энни Илонзе (FBI Agent Lisa Inman), Джефф Хефнер (Chris North), Кэйли Флеминг (Carly North), Эдди Шин (FBI Agent Li), Метод Мэн (Narcotics Detective Barker), Тайсон Риттер (Homeless Sam), Йен Касселберри (Cortez), Ричард Кебрал (Salazar)

Описание:
Когда система закрывает глаза на убийство ее семьи, она решает вершить справедливость сама: очистить город от преступников и продажных полицейских, чтобы отомстить за любимых. Ведь месть — это блюдо, которое подают холодным. Холодным, как мороженое со вкусом мяты, которое так любила ее единственная дочь

Рейтинг:

Качество: BDRip 1080p
Формат: MKV
Видео: ]Видео: AVC, 1920×800 (2.40:1), 23.976 fps, 6 800 Kbps (0.185 bit/pixel)
Аудио: русский / AC3 / 5.1 / 48 kHz / 384 kbps / ||
Навигация по главам: есть

ОтчетМедиаИнфо
General
Unique ID : 191766362231509231781583844548877344619 (0x9044DBA19D3D98F2A04718B09F55DF6B)
Complete name : E:Запись с твPeppermint.2018.BDRip 1080p.Rip.by.White Smoke.R.G.Generalfilm.mkv
Format : Matroska
Format version : Version 4 / Version 2
File size : 5.12 GiB
Duration : 1 h 42 min
Overall bit rate : 7 182 kb/s
Movie name : Peppermint.2018.BDRip 1080p.Rip.by.White Smoke.R.G.Generalfilm.mkv
Encoded date : UTC 2018-12-14 15:33:04
Writing application : mkvmerge v6.8.0 ('Theme for Great Cities') 64bit built on Mar 2 2014 21:34:26
Writing library : libebml v1.3.0 + libmatroska v1.4.1
Cover : Yes
Attachments : cover.png

Video
ID : 1
Format : AVC
Format/Info : Advanced Video Codec
Format profile : High@L4.1
Format settings : CABAC / 5 Ref Frames
Format settings, CABAC : Yes
Format settings, ReFrames : 5 frames
Codec ID : V_MPEG4/ISO/AVC
Duration : 1 h 42 min
Bit rate : 6 800 kb/s
Width : 1 920 pixels
Height : 800 pixels
Display aspect ratio : 2.40:1
Frame rate mode : Constant
Frame rate : 23.976 (24000/1001) FPS
Color space : YUV
Chroma subsampling : 4:2:0
Bit depth : 8 bits
Scan type : Progressive
Bits/(Pixel*Frame) : 0.185
Stream size : 4.74 GiB (93%)
Writing library : x264 core 148 r2638 7599210
Encoding settings : cabac=1 / ref=5 / deblock=1:-2:-1 / analyse=0x3:0x113 / me=umh / subme=11 / psy=1 / psy_rd=0.00:0.15 / mixed_ref=1 / me_range=32 / chroma_me=1 / trellis=2 / 8x8dct=1 / cqm=0 / deadzone=21,11 / fast_pskip=0 / chroma_qp_offset=-3 / threads=6 / lookahead_threads=1 / sliced_threads=0 / nr=0 / decimate=0 / interlaced=0 / bluray_compat=0 / constrained_intra=0 / bframes=10 / b_pyramid=2 / b_adapt=2 / b_bias=0 / direct=1 / weightb=1 / open_gop=0 / weightp=2 / keyint=240 / keyint_min=23 / scenecut=40 / intra_refresh=0 / rc=2pass / mbtree=0 / bitrate=6800 / ratetol=1.0 / qcomp=0.65 / qpmin=0 / qpmax=69 / qpstep=4 / cplxblur=20.0 / qblur=0.5 / ip_ratio=1.40 / pb_ratio=1.30 / aq=1:1.00
Language : English
Default : Yes
Forced : No

Audio
ID : 2
Format : AC-3
Format/Info : Audio Coding 3
Commercial name : Dolby Digital
Codec ID : A_AC3
Duration : 1 h 42 min
Bit rate mode : Constant
Bit rate : 384 kb/s
Channel(s) : 6 channels
Channel layout : L R C LFE Ls Rs
Sampling rate : 48.0 kHz
Frame rate : 31.250 FPS (1536 SPF)
Bit depth : 16 bits
Compression mode : Lossy
Stream size : 280 MiB (5%)
Title : iTunes
Language : Russian
Service kind : Complete Main
Default : Yes
Forced : Yes

Menu
00:00:00.000 : en:00:00:00.000
00:05:49.474 : en:00:05:49.474
00:09:23.855 : en:00:09:23.855
00:14:09.599 : en:00:14:09.599
00:20:52.001 : en:00:20:52.001
00:26:34.593 : en:00:26:34.593
00:30:55.312 : en:00:30:55.312
00:35:11.693 : en:00:35:11.693
00:40:33.097 : en:00:40:33.097
00:45:56.796 : en:00:45:56.796
00:51:05.229 : en:00:51:05.229
00:56:15.872 : en:00:56:15.872
01:01:48.663 : en:01:01:48.663
01:05:45.108 : en:01:05:45.108
01:11:02.008 : en:01:11:02.008
01:16:12.401 : en:01:16:12.401
01:19:50.244 : en:01:19:50.244
01:25:28.832 : en:01:25:28.832
01:30:58.244 : en:01:30:58.244
01:35:04.574 : en:01:35:04.574

Скриншоты






[/b]
x

Не пропустите

Square Enix и People Can Fly презентовали новый кооперативный экшен под названием Outriders

Компания Square Enix и студия People Can Fly презентовали новый кооперативный экшен под названием Outriders. ...