Главная » Видео » Зарубежные фильмы » Армагеддец / The World’s End (2013) HDRip-AVC от ExKinoRay | D

Армагеддец / The World’s End (2013) HDRip-AVC от ExKinoRay | D

СКАЧАТЬ TORRENT ФАЙЛ

Информация о фильме
Название: Армагеддец
Оригинальное название: The World's End
Год выхода: 2013
Жанр: Комедия, фантастика, боевик
Режиссер: Эдгар Райт
В ролях: Саймон Пегг, Ник Фрост, Пэдди Консидайн, Мартин Фриман, Эдди Марсан, Розамунд Пайк, Пирс Броснан, Дэвид Брэдли, Стив Орам, Томас Ло

О фильме :
Их подвиг был бы увековечен в Книге рекордов Гиннесса, если бы они знали, что Гиннесс — это не только пиво. Пятеро друзей ставят себе высокую цель — организовать грандиозный забег по барам. Опасности подстерегают их на каждом шагу: красотка, от которой сходила с ума вся школа, так и тянет налево, в то время как справа надвигается таинственная угроза. В результате алкомарафон плавно переходит в реальный Армагеддец…

Страна: Великобритания
Студия: Big Talk Productions, Relativity Media
Продолжительность: 01:49:07
Перевод: Профессиональный (полное дублирование)

Файл
Формат: MKV
Качество: HDRip-AVC
Видео: MPEG-4 AVC , 752×320, ~ 878 Кбит/с
Аудио:

AAC -HE, 2 ch, ~ 76 Кбит/с
Субтитры: Русские (форс,полные), английские

MIОбщее
Уникальный идентификатор : 240458594504332472161306642835227681769 (0xB4E6A4087635D411B93CFA597B8E23E9)
Полное имя : D:MOVIESThe.Worlds.End.2013.ExKinoRay.mkv
Формат : Matroska
Версия формата : Version 4 / Version 2
Размер файла : 745 Мбайт
Продолжительность : 1 ч. 49 м.
Общий поток : 954 Кбит/сек
Дата кодирования : UTC 2018-09-11 18:19:53
Программа кодирования : mkvmerge v15.0.0 ('Duel with the Devil') 64-bit
Библиотека кодирования : libebml v1.3.5 + libmatroska v1.4.5

Видео
Идентификатор : 1
Формат : AVC
Формат/Информация : Advanced Video Codec
Профиль формата : High@L4.1
Параметр CABAC формата : Да
Параметр RefFrames формата : 12 кадров
Идентификатор кодека : V_MPEG4/ISO/AVC
Продолжительность : 1 ч. 49 м.
Битрейт : 878 Кбит/сек
Ширина : 752 пикселя
Высота : 320 пикселей
Соотношение сторон : 2,35:1
Режим частоты кадров : Постоянный
Частота кадров : 23,976 (24000/1001) кадра/сек
Цветовое пространство : YUV
Субдискретизация насыщенности : 4:2:0
Битовая глубина : 8 бит
Тип развёртки : Прогрессивная
Бит/(Пиксели*Кадры) : 0.152
Размер потока : 684 Мбайт (92%)
Библиотека кодирования : x264 core 152 r2851kMod ba24899
Настройки программы : cabac=1 / ref=12 / deblock=1:-3:-3 / analyse=0x3:0x133 / me=umh / subme=10 / psy=1 / fade_compensate=0.00 / psy_rd=1.00:0.16 / mixed_ref=1 / me_range=32 / chroma_me=1 / trellis=2 / 8x8dct=1 / cqm=0 / deadzone=21,11 / fast_pskip=0 / chroma_qp_offset=-3 / threads=6 / lookahead_threads=1 / sliced_threads=0 / nr=0 / decimate=0 / interlaced=0 / bluray_compat=0 / constrained_intra=0 / bframes=11 / b_pyramid=2 / b_adapt=2 / b_bias=0 / direct=3 / weightb=1 / open_gop=0 / weightp=2 / keyint=240 / keyint_min=23 / scenecut=40 / intra_refresh=0 / rc_lookahead=40 / rc=2pass / mbtree=1 / bitrate=878 / ratetol=1.0 / qcomp=0.60 / qpmin=0 / qpmax=69 / qpstep=4 / cplxblur=20.0 / qblur=0.5 / ip_ratio=1.40 / aq=3:1.00
Default : Да
Forced : Нет

Аудио
Идентификатор : 2
Формат : AAC
Формат/Информация : Advanced Audio Codec
Профиль формата : HE-AAC / LC
Идентификатор кодека : A_AAC
Продолжительность : 1 ч. 49 м.
Битрейт : 76,0 Кбит/сек
Каналы : 2 канала
Расположение каналов : Front: L R
Частота : 48,0 КГц / 24,0 КГц
Частота кадров : 23,438 кадра/сек (1024 SPF)
Метод сжатия : С потерями
Задержка видео : 31 мс.
Размер потока : 59,3 Мбайт (8%)
Default : Да
Forced : Нет

Текст #1
Идентификатор : 3
Формат : UTF-8
Идентификатор кодека : S_TEXT/UTF8
Идентификатор кодека/Информация : UTF-8 Plain Text
Продолжительность : 1 ч. 38 м.
Битрейт : 0 бит/сек
ElementCount : 9
Размер потока : 531 байт (0%)
Заголовок : Rus forced
Язык : Russian
Default : Да
Forced : Да

Текст #2
Идентификатор : 4
Формат : UTF-8
Идентификатор кодека : S_TEXT/UTF8
Идентификатор кодека/Информация : UTF-8 Plain Text
Продолжительность : 1 ч. 42 м.
Битрейт : 138 бит/сек
ElementCount : 1727
Размер потока : 105 Кбайт (0%)
Заголовок : Rus
Язык : Russian
Default : Нет
Forced : Нет

Текст #3
Идентификатор : 5
Формат : UTF-8
Идентификатор кодека : S_TEXT/UTF8
Идентификатор кодека/Информация : UTF-8 Plain Text
Продолжительность : 1 ч. 42 м.
Битрейт : 84 бит/сек
ElementCount : 1749
Размер потока : 64,1 Кбайт (0%)
Заголовок : Eng
Язык : English
Default : Нет
Forced : Нет

Меню
00:00:00.000 : :Chapter 01
00:05:38.296 : :Chapter 02
00:10:33.007 : :Chapter 03
00:15:34.767 : :Chapter 04
00:19:56.695 : :Chapter 05
00:25:23.980 : :Chapter 06
00:30:07.180 : :Chapter 07
00:36:09.750 : :Chapter 08
00:42:40.266 : :Chapter 09
00:46:17.232 : :Chapter 10
00:50:20.017 : :Chapter 11
00:57:20.728 : :Chapter 12
01:02:29.203 : :Chapter 13
01:06:30.736 : :Chapter 14
01:12:17.124 : :Chapter 15
01:18:37.003 : :Chapter 16
01:23:51.192 : :Chapter 17
01:26:45.783 : :Chapter 18
01:35:16.752 : :Chapter 19
01:42:20.217 : :Chapter 20
01:49:07.290 : :Chapter 21
Скриншоты

x

Не пропустите

Укрась прощальное утро цветами обещания / Sayonara no Asa ni Yakusoku no Hana o Kazarou (2018) BDRip-HEVC 1080p от HEVC CLUB | D

СКАЧАТЬ TORRENT ФАЙЛ Название: Укрась прощальное утро цветами обещания Оригинальное название: Sayonara no Asa ni ...