10×10 / 10 на 10 (2018) BDRip 1080p | HDrezka Studio | Скачать Торрент
Главная » Видео » Зарубежные фильмы » 10×10 / 10 на 10 (2018) BDRip 1080p | HDrezka Studio

10×10 / 10 на 10 (2018) BDRip 1080p | HDrezka Studio

СКАЧАТЬ TORRENT ФАЙЛ

Информация о фильме
Название: 10 на 10
Оригинальное название: 10×10
Год выхода: 2018
Жанр: Триллер
Режиссер: Сьюзи Юинг
В ролях: Люк Эванс, Келли Райлли, Ноэль Кларк, Оливия Ченери, Руби Бустаманте, Джейсон Мацца, Джилл Винтерниц, Скай Люсия Дегруттола, Джексон Кай

О фильме:
Нередко обыкновенные люди способны совершать непредсказуемые поступки. Иногда эти действия вызваны откровенными сексуальными фантазиями, или склонностью к применению насилия. Этот молодой человек выглядит вполне законопослушным гражданином. Однако добропорядочный обыватель, словно дикий зверь, набросился на свою жертву в цивилизованном населенном пункте, чтобы поместить свою пленницу в полную изоляцию. Неужели преступник испытывает личную неприязнь к своей заложнице? Какие планы он вынашивает? Как долго хрупкой даме находиться в его власти? Органические чужой свободы доставляет злоумышленнику несказанное удовольствие. Сможет ли похищенная особа вновь обрести возможность увидеть солнечный свет?

Страна: Великобритания
Студия: Broadlane Films
Продолжительность: 01:26:56
Перевод: Профессиональный многоголосый | HDrezka Studio

Файл
Кодек: x264
Качество: BDRip 1080p
Видео: MPEG-4 AVC, 8358 Kбит/с, 1920×720
Звук #1: Русский | AC3, 2 ch, 384 Кбит/с | Профессиональный многоголосый | HDrezka Studio
Звук #2: Английский | AC3, 6 ch, 640 Кбит/с | Оригинал
Субтитры: Английские

Скриншоты


Инфо-файлФормат : Matroska
Версия формата : Version 2
Размер файла : 5,70 Гбайт
Продолжительность : 1 ч. 26 м.
Общий поток : 9383 Кбит/сек
Название фильма : 10×10.2018.1080p.BluRay.x264.by.zzZGVvv
Дата кодирования : UTC 2018-08-08 10:52:54
Программа кодирования : mkvmerge v5.8.0 ('No Sleep / Pillow') built on Sep 2 2012 15:37:04
Библиотека кодирования : libebml v1.2.3 + libmatroska v1.3.0
Attachements : cover.jpg

Видео
Идентификатор : 1
Формат : AVC
Формат/Информация : Advanced Video Codec
Профиль формата : High@L4.1
Параметр CABAC формата : Да
Параметр ReFrames формата : 5 кадров
Идентификатор кодека : V_MPEG4/ISO/AVC
Продолжительность : 1 ч. 26 м.
Битрейт : 8358 Кбит/сек
Ширина : 1920 пикселей
Высота : 720 пикселей
Соотношение сторон : 2,667
Режим частоты кадров : Постоянный
Частота кадров : 23,976 кадра/сек
Цветовое пространство : YUV
Субдискретизация насыщенности : 4:2:0
Битовая глубина : 8 бит
Тип развёртки : Прогрессивная
Бит/(Пиксели*Кадры) : 0.252
Размер потока : 4,96 Гбайт (87%)
Заголовок : 10×10.2018.1080p.BluRay.x264
Библиотека кодирования : x264 core 157 r2932 303c484
Настройки программы : cabac=1 / ref=5 / deblock=1:-3:-3 / analyse=0x3:0x113 / me=umh / subme=8 / psy=1 / psy_rd=1.00:0.00 / mixed_ref=1 / me_range=32 / chroma_me=1 / trellis=2 / 8x8dct=1 / cqm=0 / deadzone=21,11 / fast_pskip=1 / chroma_qp_offset=-2 / threads=22 / lookahead_threads=3 / sliced_threads=0 / nr=0 / decimate=1 / interlaced=0 / bluray_compat=0 / constrained_intra=0 / bframes=3 / b_pyramid=2 / b_adapt=2 / b_bias=0 / direct=3 / weightb=1 / open_gop=0 / weightp=2 / keyint=240 / keyint_min=24 / scenecut=40 / intra_refresh=0 / rc_lookahead=50 / rc=2pass / mbtree=1 / bitrate=8358 / ratetol=1.0 / qcomp=0.60 / qpmin=0 / qpmax=69 / qpstep=4 / cplxblur=20.0 / qblur=0.5 / ip_ratio=1.40 / aq=3:0.80
Язык : English
Default : Да
Forced : Нет

Аудио #1
Идентификатор : 2
Формат : AC-3
Формат/Информация : Audio Coding 3
Расширение режима : CM (complete main)
Параметр Endianness формата : Big
Идентификатор кодека : A_AC3
Продолжительность : 1 ч. 26 м.
Вид битрейта : Постоянный
Битрейт : 384 Кбит/сек
Каналы : 2 канала
Расположение каналов : Front: L R
Частота : 48,0 КГц
Метод сжатия : С потерями
Размер потока : 239 Мбайт (4%)
Заголовок : HDrezka Studio
Язык : Russian
Default : Да
Forced : Нет

Аудио #2
Идентификатор : 3
Формат : AC-3
Формат/Информация : Audio Coding 3
Расширение режима : CM (complete main)
Параметр Endianness формата : Big
Идентификатор кодека : A_AC3
Продолжительность : 1 ч. 26 м.
Вид битрейта : Постоянный
Битрейт : 640 Кбит/сек
Каналы : 6 каналов
Расположение каналов : Front: L C R, Side: L R, LFE
Частота : 48,0 КГц
Метод сжатия : С потерями
Размер потока : 398 Мбайт (7%)
Язык : English
Default : Нет
Forced : Нет

Текст #1
Идентификатор : 4
Формат : UTF-8
Идентификатор кодека : S_TEXT/UTF8
Идентификатор кодека/Информация : UTF-8 Plain Text
Язык : English
Default : Нет
Forced : Нет

Текст #2
Идентификатор : 5
Формат : UTF-8
Идентификатор кодека : S_TEXT/UTF8
Идентификатор кодека/Информация : UTF-8 Plain Text
Заголовок : SDH
Язык : English
Default : Нет
Forced : Нет

Меню
00:00:00.000 : en:00:00:00.000
00:12:33.435 : en:00:12:33.419
00:22:06.483 : en:00:22:06.450
00:33:43.471 : en:00:33:43.438
00:43:04.615 : en:00:43:04.582
00:53:44.838 : en:00:53:44.805
01:06:08.998 : en:01:06:08.965
01:21:06.812 : en:01:21:06.779

x

Не пропустите

Падшая звезда / Broken Star (2018) WEB-DLRip-AVC от ExKinoRay | HDRezka Studio

СКАЧАТЬ TORRENT ФАЙЛ Информация о фильме Название: Падшая звезда Оригинальное название: Broken Star Год выпуска: ...