Главная » Dance » Значит, ты умеешь танцевать? / So You Think You Can Dance [15×01-05 из 21] (2018) HDTVRip 720p | ColdFilm

Значит, ты умеешь танцевать? / So You Think You Can Dance [15×01-05 из 21] (2018) HDTVRip 720p | ColdFilm

СКАЧАТЬ TORRENT ФАЙЛ

Информация о фильме
Название: Так ты думаешь, что умеешь танцевать?
Оригинальное название: So You Think You Can Dance
Год выпуска: 2018
Жанр: Танцевальное шоу
Режиссер:Дон Уэйнер, Найджел Литго, Мэттью Даймонд
В ролях: Найджел Литго,Кэт Дили,Марк Томпсон,Мэри Мерфи,Миа Майклс,Адам Шенкман, Кит Диорио, Трэвис Уолл, Стивен Босс, Кэтрин МакКормик

О фильме:
В мегаполисах США проводится кастинг на отбор ТОР 20 лучших танцоров, которые встретятся в финале. Количество претендентов несколько тысяч. Это реалити-шоу с профессиональными танцорами и обычными людьми.


Страна: США
Студия: Nigel Lythgoe
Продолжительность: 5 x ~ 00:44:00
Перевод: Любительский многоголосый [ColdFilm]

Файл
Кодек: x264 (AVC)
Качество: HDTVRip 720p
Видео: 1280×720, 4000 Кбит/с, 29.970 fps
Звук: 48 kHz,AC3 , 2/0 (L,R) ch, ~192 kbps

Скриншоты


MIGeneral
Unique ID : 298910274931483228303469152561381028093 (0xE0E00660FF3A358DE408335D3770B0FD)
Complete name : So.You.Think.You.Can.Dance.S15E01.720p.ColdFilm.mkv
Format : Matroska
Format version : Version 2
File size : 1.28 GiB
Duration : 43 min 39 s
Overall bit rate : 4 212 kb/s
Encoded date : UTC 2018-06-05 00:09:04 / UTC 2018-06-05 00:09:04
Writing application : Lavf54.63.104
Writing library : Lavf54.63.104

Video
ID : 1
Format : AVC
Format/Info : Advanced Video Codec
Format profile : Main@L3.1
Format settings : CABAC / 1 Ref Frames
Format settings, CABAC : Yes
Format settings, ReFrames : 1 frame
Codec ID : V_MPEG4/ISO/AVC
Duration : 43 min 39 s
Bit rate : 4 000 kb/s
Width : 1 280 pixels
Height : 720 pixels
Display aspect ratio : 16:9
Frame rate mode : Constant
Frame rate : 29.970 (30000/1001) FPS
Color space : YUV
Chroma subsampling : 4:2:0
Bit depth : 8 bits
Scan type : Progressive
Bits/(Pixel*Frame) : 0.145
Stream size : 1.20 GiB (93%)
Writing library : x264 core 129
Default : Yes
Forced : No

Audio
ID : 2
Format : AC-3
Format/Info : Audio Coding 3
Codec ID : A_AC3
Duration : 43 min 39 s
Bit rate mode : Constant
Bit rate : 192 kb/s
Channel(s) : 2 channels
Channel positions : Front: L R
Sampling rate : 44.1 kHz
Frame rate : 28.711 FPS (1536 SPF)
Bit depth : 16 bits
Compression mode : Lossy
Stream size : 60.0 MiB (5%)
Service kind : Complete Main
Default : Yes
Forced : No

x

Не пропустите

Offworld Trading Company [v 1.21.21834 + 8 DLC] (2016) PC | Лицензия

СКАЧАТЬ TORRENT ФАЙЛ Год выпуска: 2016 Жанр: Разработчик: Mohawk Games Издательство: Stardock Entertainment Версия игры: ...