Главная » Видео » Телевизор » Следствие вели… с Леонидом Каневским. С меня хватит! [16.12] (2018) WEBRip от GeneralFilm

Следствие вели… с Леонидом Каневским. С меня хватит! [16.12] (2018) WEBRip от GeneralFilm

СКАЧАТЬ TORRENT ФАЙЛ

Год выпуска: 2018
Жанр: Документальный, детектив, криминал, расследование, история
Выпущено: Россия, НТВ
Режиссер: Игорь Ромащенко, Борис Фёдоров
Ведущий: Леонид Каневский

О фильме: 1970-е годы, Ленинград. В своей квартире найдены мертвыми учительница и ее дочь. Служебная собака не смогла взять след из-за резкого запаха хлорофоса. Вероятно, злоумышленник хорошо подготовился. Криминалисты осмотрели квартиру и заметили на полу разбитый будильник и пуговицу. Несмотря на то, что в комнатах все вещи были разбросаны, ничего не пропало. Это дело стало одним из самых загадочных в истории криминалистики города.

Качество: WEBRip
Видео: XviD, 1785 Кбит/с, 720×400
Аудио: Русский (AC3, 2 ch, 192 Кбит/с)
Продолжительность: 00:41:10
Перевод: Не требуется
Субтитры: нет

Скриншоты


MediaInfo
Общее
Полное имя : D:Sledstvie.veli.(2018.12.16).WEBRip.GeneralFilm.avi
Формат : AVI
Формат/Информация : Audio Video Interleave
Размер файла : 585 Мбайт
Продолжительность : 41 м. 9 с.
Общий поток : 1987 Кбит/сек
Программа кодирования : VirtualDubMod 1.5.10.3 | www.virtualdub-fr.org || (build 2550/release)
Библиотека кодирования : VirtualDubMod build 2550/release

Видео
Идентификатор : 0
Формат : MPEG-4 Visual
Профиль формата : Advanced Simple@L5
Параметр BVOP формата : 1
Параметр QPel формата : Нет
Параметр GMC формата : Без точки перехода
Параметр матрицы формата : Выборочная
Идентификатор кодека : XVID
Идентификатор кодека/Подсказка : XviD
Продолжительность : 41 м. 9 с.
Битрейт : 1785 Кбит/сек
Ширина : 720 пикселей
Высота : 400 пикселей
Соотношение сторон : 16:9
Частота кадров : 25,000 кадров/сек
Цветовое пространство : YUV
Субдискретизация насыщенности : 4:2:0
Битовая глубина : 8 бит
Тип развёртки : Прогрессивная
Метод сжатия : С потерями
Бит/(Пиксели*Кадры) : 0.248
Размер потока : 526 Мбайт (90%)
Библиотека кодирования : XviD 1.2.1 (UTC 2008-12-04)

Аудио
Идентификатор : 1
Формат : AC-3
Формат/Информация : Audio Coding 3
Расширение режима : CM (complete main)
Параметр Endianness формата : Big
Идентификатор кодека : 2000
Продолжительность : 41 м. 9 с.
Вид битрейта : Постоянный
Битрейт : 192 Кбит/сек
Каналы : 2 канала
Расположение каналов : Front: L R
Частота : 48,0 КГц
Частота кадров : 31,250 кадров/сек (1536 spf)
Битовая глубина : 16 бит
Метод сжатия : С потерями
Размер потока : 56,5 Мбайт (10%)
Выравнивание : Разделение по промежуткам
Продолжительность промежутка : 40 мс. (1,00 видеокадр)
Время предзагрузки промежутка : 500 мс.

Релиз:

x

Не пропустите

Андрей Смирнов и Александр Панкратов-Чёрный вернутся к взлому замков

В Москве стартовали съёмки десятисерийного продолжения остросюжетной комедии «Динозавр» – «Динозавр 2». В центре сюжета ...