Главная » Pop » Рожденные в СССР — Группа «Лицей» [05.04] (2017) DVB

Рожденные в СССР — Группа «Лицей» [05.04] (2017) DVB

СКАЧАТЬ TORRENT ФАЙЛ

Исполнитель: Настя Макаревич и группа «Лицей».
Жанр: POP
Год выпуска: 2017
Продолжительность: 01:00:12

Описание: В гостях у Владимира Глазунова Настя Макаревич и группа «Лицей»,живой звук,прямой эфир 5 апреля 2017 года.

Доп.информация: В записи присутствуют кратковременные подрывы,но так как в течение недели этот эфир никто нигде не выложил,то выкладываю я с таким качеством.

Формат: MKV
Качество: DVB
Видео кодек: H.264
Аудио кодек: MP2
Видео: H.264, ~3 190 Kbps, 720×576 (4:3), 25fps
Аудио: MP2, 48000Hz, 2ch, 192 kbps

MedaInfoLicey_05.04.16.mkv
Format : Matroska
Format version : Version 4 / Version 2
File size : 1.45 GiB
Duration : 1h 0mn
Overall bit rate : 3 456 Kbps
Writing application : Lavf56.36.100
Writing library : Lavf56.36.100 / Lavf56.36.100

Video
ID : 1
Format : AVC
Format/Info : Advanced Video Codec
Format profile : High@L3
Format settings, CABAC : Yes
Format settings, ReFrames : 4 frames
Codec ID : V_MPEG4/ISO/AVC
Duration : 1h 0mn
Bit rate : 3 195 Kbps
Width : 720 pixels
Height : 576 pixels
Display aspect ratio : 5:4
Original display aspect ratio : 4:3
Frame rate mode : Constant
Frame rate : 25.000 fps
Standard : PAL
Color space : YUV
Chroma subsampling : 4:2:0
Bit depth : 8 bits
Scan type : Interlaced
Scan type, store method : Separated fields
Scan order : Top Field First
Bits/(Pixel*Frame) : 0.308
Stream size : 1.34 GiB (92%)
Default : Yes
Forced : No
Color range : Limited
Color primaries : BT.601 PAL
Transfer characteristics : BT.470 System B, BT.470 System G
Matrix coefficients : BT.601

Audio
ID : 2
Format : MPEG Audio
Format version : Version 1
Format profile : Layer 2
Codec ID : A_MPEG/L2
Codec ID/Hint : MP2
Duration : 1h 0mn
Bit rate mode : Constant
Bit rate : 192 Kbps
Channel(s) : 2 channels
Sampling rate : 48.0 KHz
Compression mode : Lossy
Delay relative to video : 16ms
Stream size : 82.7 MiB (6%)
Language : Russian
Default : Yes
Forced : NoСкриншоты

x

Не пропустите

Mercyless — Pathetic Divinity (2016) FLAC

СКАЧАТЬ TORRENT ФАЙЛ Название: Pathetic Divinity Исполнитель: Mercyless Год издания: 2016 Жанр: Old School Death ...