Главная » Видео » Телевизор » Перерыв с Мишель Вульф / The Break with Michelle Wolf [01×01-07 из 15] (2018) WEBRip 1080p | ColdFilm

Перерыв с Мишель Вульф / The Break with Michelle Wolf [01×01-07 из 15] (2018) WEBRip 1080p | ColdFilm

СКАЧАТЬ TORRENT ФАЙЛ

Информация о фильме
Название: Перерыв с Мишель Вульф
Оригинальное название: The Break with Michelle Wolf
Год выпуска: 2018
Жанр: Реалити-шоу
В ролях: Мишель Вульф, Джимми Николас, Крис Майерс, Дези Домо, Майя Меркер, Ивэн Хойт Томпсон, Дина Энн Комолли

О фильме:
Никто не уйдет без эмоций, Мишель Вульф уже прицелилась на свое еженедельное шоу, которое покажет нам комедию и беседу с специально приглашенными гостями в студию.


Страна: США
Студия: NetFlix
Продолжительность: 7 x ~ 00:40:00
Перевод: Любительский многоголосый [ColdFilm]

Файл
Кодек: x264 (AVC)
Качество: WEBRip 1080p
Видео: 4700 Кбит/с, 1920×1080, 29.970 fps
Аудио: Русский (AC3, 2 ch, 125 Кбит/с)

Скриншоты


MI
General
Unique ID : 208842901005467395755070839289534755299 (0x9D1DADFEFA7DD6F81927FC1F08A831E3)
Complete name : D:The.Break.with.Michelle.Wolf.S01E01.1080p.ColdFilm.mkv
Format : Matroska
Format version : Version 2
File size : 1 020 MiB
Duration : 28 min 19 s
Overall bit rate : 5 038 kb/s
Writing application : Lavf54.63.104
Writing library : Lavf54.63.104

Video
ID : 1
Format : AVC
Format/Info : Advanced Video Codec
Format profile : Main@L4
Format settings : CABAC / 1 Ref Frames
Format settings, CABAC : Yes
Format settings, ReFrames : 1 frame
Codec ID : V_MPEG4/ISO/AVC
Duration : 28 min 19 s
Bit rate : 4 746 kb/s
Nominal bit rate : 5 000 kb/s
Width : 1 920 pixels
Height : 1 080 pixels
Display aspect ratio : 16:9
Frame rate mode : Constant
Frame rate : 29.970 (30000/1001) FPS
Color space : YUV
Chroma subsampling : 4:2:0
Bit depth : 8 bits
Scan type : Progressive
Bits/(Pixel*Frame) : 0.076
Stream size : 961 MiB (94%)
Default : Yes
Forced : No

Audio
ID : 2
Format : AC-3
Format/Info : Audio Coding 3
Codec ID : A_AC3
Duration : 28 min 19 s
Bit rate mode : Constant
Bit rate : 192 kb/s
Channel(s) : 2 channels
Channel positions : Front: L R
Sampling rate : 48.0 kHz
Frame rate : 31.250 FPS (1536 SPF)
Bit depth : 16 bits
Compression mode : Lossy
Stream size : 38.9 MiB (4%)
Service kind : Complete Main
Default : Yes
Forced : No

x

Не пропустите

Кукла Мэнди / Mandy the Doll (2018) DVDRip-AVC | L2

СКАЧАТЬ TORRENT ФАЙЛ Информация о фильме Название: Кукла Мэнди Оригинальное название: Mandy the Doll Год ...