Главная » Видео » Телевизор » Люди, построившие Америку: Первопроходцы / The Men Who Built America: Frontiersmen [01×01-04 из 22] (2018) HDTVRip 720p | ColdFilm

Люди, построившие Америку: Первопроходцы / The Men Who Built America: Frontiersmen [01×01-04 из 22] (2018) HDTVRip 720p | ColdFilm

СКАЧАТЬ TORRENT ФАЙЛ

Информация о фильме
Название: Люди, построившие Америку: Первопроходцы
Оригинальное название: The Men Who Built America: Frontiersmen
Год выпуска: 2018
Жанр: документальный, биография, история
В ролях: Джонатан К. Стюарт, Роберт И. Меса, Мадлен Адамс

О фильме:
Документалка-реконструкция канала History «The Men Who Built America: Frontiersmen» о первопроходцах в Америке.


Страна: США
Студия: Appian Way, History Channel, Stephen David Entertainment
Продолжительность: 4 x ~ 01:22:00
Перевод: Любительский многоголосый [ColdFilm]

Файл
Кодек: x.264
Качество: HDTVRip 720p
Видео:~4000 Кбит/с, 1280×720, 23.976 fps
Аудио: Русский (AC3, 2 ch, 192 Кбит/с)

Скриншоты

MIGeneral
Unique ID : 181080007296878016819901264041613692060 (0x883ABDA7940A476F6572D43F86238C9C)
Complete name : D:The.Men.Who.Built.America.Frontiersmen.Part.1.720p.ColdFilm.mkv
Format : Matroska
Format version : Version 4 / Version 2
File size : 2.44 GiB
Duration : 1 h 23 min
Overall bit rate : 4 206 kb/s
Encoded date : UTC 2018-03-14 08:41:00
Writing application : mkvmerge v21.0.0 ('Tardigrades Will Inherit The Earth') 64-bit
Writing library : libebml v1.3.5 + libmatroska v1.4.8

Video
ID : 1
Format : AVC
Format/Info : Advanced Video Codec
Format profile : Main@L3.1
Format settings : CABAC / 1 Ref Frames
Format settings, CABAC : Yes
Format settings, ReFrames : 1 frame
Codec ID : V_MPEG4/ISO/AVC
Duration : 1 h 23 min
Bit rate : 4 000 kb/s
Width : 1 280 pixels
Height : 720 pixels
Display aspect ratio : 16:9
Frame rate mode : Constant
Frame rate : 23.976 (24000/1001) FPS
Color space : YUV
Chroma subsampling : 4:2:0
Bit depth : 8 bits
Scan type : Progressive
Bits/(Pixel*Frame) : 0.181
Stream size : 2.33 GiB (95%)
Writing library : x264 core 129
Encoding settings : cabac=1 / ref=1 / deblock=1:0:0 / analyse=0x1:0x131 / me=dia / subme=2 / psy=1 / psy_rd=1.00:0.00 / mixed_ref=0 / me_range=16 / chroma_me=1 / trellis=0 / 8x8dct=0 / cqm=0 / deadzone=21,11 / fast_pskip=1 / chroma_qp_offset=0 / threads=2 / lookahead_threads=1 / sliced_threads=0 / nr=0 / decimate=1 / interlaced=0 / bluray_compat=0 / constrained_intra=0 / bframes=0 / weightp=2 / keyint=250 / keyint_min=25 / scenecut=40 / intra_refresh=0 / rc_lookahead=40 / rc=abr / mbtree=1 / bitrate=4000 / ratetol=1.0 / qcomp=0.60 / qpmin=10 / qpmax=51 / qpstep=4 / ip_ratio=1.41 / aq=1:1.00
Default : Yes
Forced : No

Audio
ID : 2
Format : AC-3
Format/Info : Audio Coding 3
Codec ID : A_AC3
Duration : 1 h 23 min
Bit rate mode : Constant
Bit rate : 192 kb/s
Channel(s) : 2 channels
Channel positions : Front: L R
Sampling rate : 48.0 kHz
Frame rate : 31.250 FPS (1536 SPF)
Bit depth : 16 bits
Compression mode : Lossy
Stream size : 114 MiB (5%)
Title : ColdFilm
Language : Russian
Service kind : Complete Main
Default : Yes
Forced : No

x

Не пропустите

ATOM RPG: Post-apocalyptic indie game [v 0.7.5 | Early Access] (2017) PC | Steam-Rip

СКАЧАТЬ TORRENT ФАЙЛ Год выпуска: 2017 Жанр: RPG Разработчик: AtomTeam Издательство: AtomTeam Версия игры: 0.7.5 ...