Главная » Видео » Сериалы » Стрелок / Shooter [03х01 из 13] (2018) WEBRip 720p | OmskBird

Стрелок / Shooter [03х01 из 13] (2018) WEBRip 720p | OmskBird

СКАЧАТЬ TORRENT ФАЙЛ

Информация о фильме
Название: Стрелок
Оригинальное название: Shooter
Год выхода: 2018
Жанр: Боевик, Драма
Режиссер: Саймон Селлан Джоунс
В ролях: Райан Филипп, Синтия Аддай-Робинсон, Омар Эппс, Эдди МакКлинток, Темби Лок, Анжелика Кенни, Лекси Колкер, Шон Майкл, Шантель Ван Сантен, Донзали Абернати и др.

О фильме:
Главным персонажем является бывший морской пехотинец и снайпер Боб Суэггер. Не по своей воле он оказывается вовлеченным в тайный заговор, главная цель которого заключается в ликвидации американского президента. Догадавшись о том, что его планируют подставить, Боб уходит в бега и готовится к тому, чтобы найти настоящего киллера.

Страна: США
Продолжительность: ~00:43:00 серия
Перевод: Любительский (многоголосый закадровый) OmskBird

Файл
Кодек: MPEG-4 AVC/х.264
Качество: WEBRip 720p

Релиз:
Релиз-группа: OmskBird
Перевод: Татьяна Масаковская
Роли озвучивали: Алексей Гнеушев, Павел Ярощик, Андрей Астров, Маргарита Корш
Звукорежиссер: Павел Квентов
Постер: Ксения Просветова
MediaInfo
General
Unique ID : 125423749565583908280443101725055563582 (0x5E5BBC49E5753C697DE84B457D2CB73E)
Complete name : G:Shooter.S03.720p.WEBRip.OmskBirdShooter.S03E01.720p.WEBRip.OmskBird.mkv
Format : Matroska
Format version : Version 4 / Version 2
File size : 969 MiB
Duration : 43mn 24s
Overall bit rate : 3 121 Kbps
Encoded date : UTC 2018-06-24 04:41:38
Writing application : mkvmerge v21.0.0 ('Tardigrades Will Inherit The Earth') 64-bit
Writing library : libebml v1.3.5 + libmatroska v1.4.8
Cover : Yes
Attachments : small_cover.jpg / small_cover_land.jpg / cover.jpg / cover_land.jpg

Video
ID : 1
Format : AVC
Format/Info : Advanced Video Codec
Format profile : Main@L3.2
Format settings, CABAC : Yes
Format settings, ReFrames : 3 frames
Codec ID : V_MPEG4/ISO/AVC
Duration : 43mn 24s
Bit rate : 2 866 Kbps
Width : 1 280 pixels
Height : 720 pixels
Display aspect ratio : 16:9
Frame rate mode : Constant
Frame rate : 23.976 (24000/1001) fps
Standard : PAL
Color space : YUV
Chroma subsampling : 4:2:0
Bit depth : 8 bits
Scan type : Progressive
Bits/(Pixel*Frame) : 0.130
Stream size : 890 MiB (92%)
Language : English
Default : Yes
Forced : No
Color range : Limited
Color primaries : BT.709
Transfer characteristics : BT.709
Matrix coefficients : BT.709

Audio
ID : 2
Format : AC-3
Format/Info : Audio Coding 3
Mode extension : CM (complete main)
Format settings, Endianness : Big
Codec ID : A_AC3
Duration : 43mn 24s
Bit rate mode : Constant
Bit rate : 192 Kbps
Channel(s) : 2 channels
Channel positions : Front: L R
Sampling rate : 48.0 KHz
Frame rate : 31.250 fps (1536 spf)
Compression mode : Lossy
Stream size : 59.6 MiB (6%)
Title : OmskBird
Language : Russian
Default : Yes
Forced : No

Скриншоты

Внимание! Раздача ведётся путём добавления новых серий.
Внимание! Раздача ведётся путём добавления новых серий; при каждом добавлении создётся новый торрент. Чтобы начать докачку новой серии, пользователям необходимо сделать следующее:
Остановить скачивание.
Удалить старый торрент у себя из клиента (старые серии удалять не надо).
Скачать новый торрент и запустить его у себя в клиенте вместо старого, при этом указать клиенту путь в старую папку куда и должно происходить скачивание новых серий.
Ваш клиент при этом должен произвести хеширование (проверку) старой папки (если не производит сам — помогите ему сделать это), и будет докачивать только те серии которых у вас ещё нет. Старые серии при этом не удаляются, а продолжают раздаваться!
Eсли вы уже удалили старые серии, то предотвратить повторную закачку старых серий можно, отжав галочку в соответсвующих местах при запуске нового торрента. По возможности, желательно не удалять старые серии как можно дольше чтобы релизёр не столько продолжал раздавать старые серии, а смог сконцентрироваться на новых.

x

Не пропустите

Полдарк / Poldark [04×01-06 из 08] (2018) HDTVRip 1080p | BaibaKo

СКАЧАТЬ TORRENT ФАЙЛ Информация о фильме Название: Полдарк Оригинальное название: Poldark Год выпуска: 2018 Жанр: ...