Главная » Видео » Сериалы » Снегопад / Snowfall [02×01-09 из 10] (2018) WEBRip 720p | ColdFilm

Снегопад / Snowfall [02×01-09 из 10] (2018) WEBRip 720p | ColdFilm

СКАЧАТЬ TORRENT ФАЙЛ

Информация о фильме
Название: Снегопад
Оригинальное название: Snowfall
Год выпуска: 2018
Жанр: Драма
Режиссер: Адиль Эль Арби, Билал Фалла, Джон Синглтон
В ролях: Демсон Идрис, Серхио Перис-Менчета, Айзиа Джон, Эймин Джозеф, Клаудия Абрего, Рой Авигдори, Лиана Легаспи, Адам Карст, Бернардо Бадилло, Ник Бишоп, Маркис Мур, Альберт А Вега, Розалинд Лотт, Алон Абутбул, Катрин Чен, Иоланда Инглиш, Тейлор Ковальски, Элли Патрикиос, Тринити Стоукс

О фильме:
Сериал о начале кокаиновой эпидемии в Лос-Анджелесе начала 1980-х, когда на улицах Америки появился дешёвый крэк из Доминиканы, и страну захлестнул неконтролируемый рост преступности. События увидены глазами трёх главных героев: уличного торговца Джерома, гангстера Густаво и Леона, парня из благопристойного семейства.


Страна: США
Студия: Groundswell Productions
Продолжительность: 9 x ~ 00:25:00
Перевод: Любительский многоголосый [ColdFilm]

Файл
Кодек: x264 (AVC)
Качество: WEBRip 720p
Видео: 3500 Кбит/с, 1280×720, 25.000 fps
Аудио: Русский (AC3, 2 ch, 192 Кбит/с)

Скриншоты


MIGeneral
Unique ID : 191980546275113394287303977614891798022 (0x906E1BB84F812C489DCC0B1ECFA7CE06)
Complete name : Snowfall.S02E01.720p.ColdFilm.mkv
Format : Matroska
Format version : Version 2
File size : 1.19 GiB
Duration : 47 min 11 s
Overall bit rate : 3 595 kb/s
Encoded date : UTC 2018-07-20 09:23:18 / UTC 2017-11-20 18:25:40
Writing application : mkvmerge v3.3.0 ('Language') built on Mar 24 2010 14:59:24
Writing library : libebml v0.8.0 + libmatroska v0.9.0 / Lavf54.63.104

Video
ID : 1
Format : AVC
Format/Info : Advanced Video Codec
Format profile : Main@L3.1
Format settings : CABAC / 1 Ref Frames
Format settings, CABAC : Yes
Format settings, ReFrames : 1 frame
Codec ID : V_MPEG4/ISO/AVC
Duration : 47 min 11 s
Bit rate : 3 332 kb/s
Nominal bit rate : 3 500 kb/s
Width : 1 280 pixels
Height : 720 pixels
Display aspect ratio : 16:9
Frame rate mode : Constant
Frame rate : 25.000 FPS
Color space : YUV
Chroma subsampling : 4:2:0
Bit depth : 8 bits
Scan type : Progressive
Bits/(Pixel*Frame) : 0.145
Stream size : 1.10 GiB (93%)
Writing library : x264 core 129
Default : No
Forced : No

Audio
ID : 2
Format : AC-3
Format/Info : Audio Coding 3
Codec ID : A_AC3
Duration : 47 min 11 s
Bit rate mode : Constant
Bit rate : 192 kb/s
Channel(s) : 2 channels
Channel positions : Front: L R
Sampling rate : 48.0 kHz
Frame rate : 31.250 FPS (1536 SPF)
Bit depth : 16 bits
Compression mode : Lossy
Stream size : 64.8 MiB (5%)
Service kind : Complete Main
Default : Yes
Forced : No

x

Не пропустите

Бесстыдники / Shameless (US) [09×01-02 из 14] (2018) WEBRip | GostFilm

СКАЧАТЬ TORRENT ФАЙЛ Информация о фильме Название: Бесстыдник Оригинальное название: Shameless Год выхода: 2018 Жанр: ...