Главная » Видео » Сериалы » Одаренные / The Gifted [02×01-03 из 13] (2018) WEB-DLRip | OMSKBIRD

Одаренные / The Gifted [02×01-03 из 13] (2018) WEB-DLRip | OMSKBIRD

СКАЧАТЬ TORRENT ФАЙЛ

Информация о фильме
Название: Одаренные
Оригинальное название: The Gifted
Год выхода: 2018
Жанр: фантастика, фэнтези, боевик
Режиссер: Брайан Сингер
В ролях: Колин Битон, Эми Акер, Стеффан Аргус, Билли Блэр, Джейсон Бремер, Пол Каревей, Эмма Дюмон, Дэйл Годбольдо и др.

О фильме:
Сюжет строится вокруг двух обычных родителей, чьи дети открывают в себе сверхъестественные способности. Семья вынуждена скрываться от правительства, недружелюбно настроенного по отношению к юным мутантам, и присоединяется к подпольной организации суперлюдей.


Страна: США
Продолжительность: ~ 00:44:00 серия
Перевод: Любительский (многоголосый закадровый) | OMSKBIRD

Файл
Кодек: Xvid
Качество: WEB-DLRip
Видео: AVI, 720×400 (16:9), 23.976 fps, ~ 1800 kbps
Звук: Аудио rus: AC-3, 48 KHz, 2 ch, 192 kbps | OMSKBIRD records

Семпл

Присутствует реклама!

Скриншоты

Mediainfo:General
Complete name : H:Мои ДокументыВидеоРАЗДАЧИГифтедThe Gifted S02 WEB-DLRip (OMSKBIRD)The Gifted S02E01 WEB-DLRip (OMSKBIRD).avi
Format : AVI
Format/Info : Audio Video Interleave
File size : 624 MiB
Duration : 44 min 5 s
Overall bit rate : 1 978 kb/s
Writing application : VirtualDubMod 1.5.10.3 | www.virtualdub-fr.org || (build 2550/release)
Writing library : VirtualDubMod build 2550/release

Video
ID : 0
Format : MPEG-4 Visual
Format profile : Advanced Simple@L5
Format settings, BVOP : 1
Format settings, QPel : No
Format settings, GMC : No warppoints
Format settings, Matrix : Default (H.263)
Codec ID : XVID
Codec ID/Hint : XviD
Duration : 44 min 5 s
Bit rate : 1 777 kb/s
Width : 720 pixels
Height : 400 pixels
Display aspect ratio : 16:9
Frame rate : 23.976 (24000/1001) FPS
Color space : YUV
Chroma subsampling : 4:2:0
Bit depth : 8 bits
Scan type : Progressive
Compression mode : Lossy
Bits/(Pixel*Frame) : 0.257
Stream size : 560 MiB (90%)
Writing library : XviD 67

Audio
ID : 1
Format : AC-3
Format/Info : Audio Coding 3
Format settings, Endianness : Big
Codec ID : 2000
Duration : 44 min 5 s
Bit rate mode : Constant
Bit rate : 192 kb/s
Channel(s) : 2 channels
Channel positions : Front: L R
Sampling rate : 48.0 kHz
Frame rate : 31.250 FPS (1536 SPF)
Bit depth : 16 bits
Compression mode : Lossy
Stream size : 60.5 MiB (10%)
Alignment : Split accross interleaves
Interleave, duration : 42 ms (1.00 video frame)
Interleave, preload duratio : 500 ms
Service kind : Complete Main

Внимание! Раздача ведётся путём добавления новых серийВнимание! Раздача ведётся путём добавления новых серий; при каждом добавлении создаётся новый торрент. Чтобы начать докачку новой серии, пользователям необходимо сделать следующее:
Остановить скачивание.
Удалить старый торрент у себя из клиента (старые серии удалять не надо).
Скачать новый торрент и запустить его у себя в клиенте вместо старого, при этом указать клиенту путь в старую папку куда и должно происходить скачивание новых серий.
Ваш клиент при этом должен произвести хеширование (проверку) старой папки (если не производит сам — помогите ему сделать это), и будет докачивать только те серии которых у вас ещё нет. Старые серии при этом не удаляются, а продолжают раздаваться!
Eсли вы уже удалили старые серии, то предотвратить повторную закачку старых серий можно, отжав галочку в соответсвующих местах при запуске нового торрента. По возможности, желательно не удалять старые серии как можно дольше чтобы релизёр не столько продолжал раздавать старые серии, а смог сконцентрироваться на новых.

x

Не пропустите

Гриффины / Family Guy [17×01-03 из 20] (2018) WEBRip | OMSKBIRD

СКАЧАТЬ TORRENT ФАЙЛ Информация о фильме Название: Гриффины Оригинальное название: Family Guy Год выхода: 2018 ...