Главная » Видео » Сериалы » Нарко: Мексика / Narcos: Mexico [01×01-03 из 10] (2018) WEBRip 1080p | NewStudio, LostFilm, Jaskier, Кубик в Кубе, Gears Media

Нарко: Мексика / Narcos: Mexico [01×01-03 из 10] (2018) WEBRip 1080p | NewStudio, LostFilm, Jaskier, Кубик в Кубе, Gears Media

СКАЧАТЬ TORRENT ФАЙЛ

Информация о сериале
Название: Нарко: Мексика
Оригинальное название: Narcos: Mexico
Год выпуска: 2018 (1 сезон)
Жанр: Драма, криминал, биография
Режиссер: Андрес Байс, Амат Эскаланте, Алонсо Руис Палашиос, Джозеф Владыка
В ролях: Алисса Диас, Диего Луна, Майкл Пенья, Тереса Руис, Кларк Фриман, Марк Кубр, Андрес Альмейда, Хулио Седильо, Майк Дойл, Тесса Иа

О сериале:
Американский остросюжетный драматический сериал «Нарко: Мексика» (Narcos: Mexico) является логическим продолжением сериала «Нарко» о жизни колумбийского наркобарона Пабло Эскобара. Мексика, 80-е годы XX века. Страну раздирает война нескольких наркокартелей, происходят постоянные убийства полицейских, а трафик наркотиков идет в США и другие страны. Картель Гвадалахара, один из его лидеров — Мигель Галлардо. Мигель объединяет людей в огромную структуру с сетью осведомителей и тайных агентов. В Гвадалахару из Калифорнии прибывает агент Управления США по контролю над наркотиками Кики Камарена вместе со своей семьей — женой Микой и тремя детьми. Он назначен на новую должность, и первым заданием Кики становится расследование дела местного картеля. Начав работу, Кики понимает, что его задание намного сложнее, чем он мог себе представить. В борьбе с наркотрафиком Камарена готов на все, однако и его противники понимают, что перед ними опасный враг.

Страна: США, Мексика
Студия: Gaumont International Television, Netflix
Продолжительность: ~ 01:00:00 серия
Перевод:
» Профессиональный (многоголосый, закадровый) [NewStudio]
» Профессиональный (многоголосый, закадровый) [LostFilm]
» Профессиональный (многоголосый, закадровый) [Jaskier]
» Профессиональный (двухголосый, закадровый) [Кубик в Кубе]
» Профессиональный (двухголосый, закадровый) [Gears Media]

Файл
Качество: WEBRip 1080p
Формат: Matroska
Видео: 1920×960 at 23.976 fps, MPEG-4 AVC, ~14200 kbps avg
Аудио#1: Русский (AC3, 2 ch, 384 Кбит/с), (AC3, 6 ch, 384 Кбит/с), (AC3, 6 ch, 640 Кбит/с)
Аудио#2: Английский (E-AC3, 6 ch, 640 Кбит/с)
Субтитры: Russian (Forced, Full), English (Forced, Full, SDH)

  • Примечание: Релиз без рекламы от Wanterlude
  • Внимание! Присутствует ненормативная лексика!

    Релиз————————
    Narcos: Mexico
    ————————
    »» Основная информация:
    Видеоряд: Narcos.Mexico.S01.1080p.NF.WEB.DDP5.1.x264-DEFLATE
    Субтитры: Русские (Forced, Full), английские (Forced, Full, SDH)

    »» Аудиодорожки:
    » NewStudio | Многоголосый (закадровый) | AC3, 6 ch, 384 Кбит/с |
    » LostFilm | Многоголосый (закадровый) | AC3, 2 ch, 384 Кбит/с |
    » Jaskier | Многоголосый (закадровый) | AC3, 6 ch, 384 Кбит/с |
    » Кубик в Кубе | Двухголосый (закадровый) | AC3, 6 ch, 640 Кбит/с |
    » Gears Media | Двухголосый (закадровый) | AC3, 2 ch, 384 Кбит/с |
    » Оригинальная дорожка | E-AC3, 6 ch, 640 Кбит/с |

    »» Дополнительная информация:
    » Forced субтитры от NewStudio, Full (Ru/En) от Netflix
    » Почти во всех дорожках присутствует ненормативная лексика!

    » Сборкой и очисткой от рекламы занимался: Wanterlude

  • Если взяли дорожку или сам релиз, будьте добры указать автора 🙂
  • MediaInfoGeneral
    Unique ID : 35538045353065022255263378446805080319 (0x1ABC60EA08359A91101361F532AB98FF)
    Complete name : D:Релизы ТрекерNarcos.Mexico.S01.1080p.WanterludeNarcos.Mexico.S01E01.1080p.Wanterlude.mkv
    Format : Matroska
    Format version : Version 4
    File size : 6.95 GiB
    Duration : 57 min 54 s
    Overall bit rate : 17.2 Mb/s
    Movie name : Narcos: Mexico | Ep 01 | by Wanterlude
    Encoded date : UTC 2018-12-07 16:39:36
    Writing application : mkvmerge v29.0.0 ('Like It Or Not') 64-bit
    Writing library : libebml v1.3.6 + libmatroska v1.4.9

    Video
    ID : 1
    Format : AVC
    Format/Info : Advanced Video Codec
    Format profile : High@L4.1
    Format settings : CABAC / 4 Ref Frames
    Format settings, CABAC : Yes
    Format settings, RefFrames : 4 frames
    Codec ID : V_MPEG4/ISO/AVC
    Duration : 57 min 33 s
    Bit rate : 14.4 Mb/s
    Width : 1 920 pixels
    Height : 960 pixels
    Display aspect ratio : 2.000
    Frame rate mode : Constant
    Frame rate : 23.976 (24000/1001) FPS
    Color space : YUV
    Chroma subsampling : 4:2:0
    Bit depth : 8 bits
    Scan type : Progressive
    Bits/(Pixel*Frame) : 0.327
    Stream size : 5.81 GiB (84%)
    Title : Narcos: Mexico | Ep 01 | by Wanterlude
    Writing library : x264 core 157 r2932+2 (master: 303c484 / tmod: 1b88d0a) [X86_64] Encoding settings : cabac=1 / ref=4 / deblock=1:-3:-3 / analyse=0x3:0x133 / me=umh / subme=11 / psy=1 / psy_rd=1.05:0.15 / mixed_ref=1 / me_range=48 / chroma_me=1 / trellis=2 / 8x8dct=1 / cqm=0 / deadzone=6,6 / fast_pskip=0 / chroma_qp_offset=-3 / threads=30 / lookahead_threads=7 / sliced_threads=0 / nr=0 / decimate=0 / interlaced=0 / bluray_compat=0 / constrained_intra=0 / bframes=10 / b_pyramid=2 / b_adapt=2 / b_bias=0 / direct=3 / weightb=1 / open_gop=0 / weightp=2 / keyint=250 / keyint_min=23 / scenecut=40 / intra_refresh=0 / rc_lookahead=60 / rc=crf / mbtree=0 / crf=20.0 / qcomp=0.70 / qpmin=0 / qpmax=69 / qpstep=4 / vbv_maxrate=62500 / vbv_bufsize=78125 / crf_max=0.0 / nal_hrd=none / filler=0 / ip_ratio=1.25 / pb_ratio=1.20 / aq=3:0.75
    Language : English
    Default : Yes
    Forced : No

    Audio #1
    ID : 2
    Format : AC-3
    Format/Info : Audio Coding 3
    Commercial name : Dolby Digital
    Codec ID : A_AC3
    Duration : 57 min 54 s
    Bit rate mode : Constant
    Bit rate : 384 kb/s
    Channel(s) : 6 channels
    Channel layout : L R C LFE Ls Rs
    Sampling rate : 48.0 kHz
    Frame rate : 31.250 FPS (1536 SPF)
    Bit depth : 16 bits
    Compression mode : Lossy
    Stream size : 159 MiB (2%)
    Title : NewStudio | Многоголосый (закадровый)
    Language : Russian
    Service kind : Complete Main
    Default : Yes
    Forced : Yes

    Audio #2
    ID : 3
    Format : AC-3
    Format/Info : Audio Coding 3
    Commercial name : Dolby Digital
    Codec ID : A_AC3
    Duration : 57 min 53 s
    Bit rate mode : Constant
    Bit rate : 384 kb/s
    Channel(s) : 2 channels
    Channel layout : L R
    Sampling rate : 48.0 kHz
    Frame rate : 31.250 FPS (1536 SPF)
    Bit depth : 16 bits
    Compression mode : Lossy
    Stream size : 159 MiB (2%)
    Title : LostFilm | Многоголосый (закадровый)
    Language : Russian
    Service kind : Complete Main
    Default : No
    Forced : No

    Audio #3
    ID : 4
    Format : AC-3
    Format/Info : Audio Coding 3
    Commercial name : Dolby Digital
    Codec ID : A_AC3
    Duration : 57 min 54 s
    Bit rate mode : Constant
    Bit rate : 384 kb/s
    Channel(s) : 6 channels
    Channel layout : L R C LFE Ls Rs
    Sampling rate : 48.0 kHz
    Frame rate : 31.250 FPS (1536 SPF)
    Bit depth : 16 bits
    Compression mode : Lossy
    Stream size : 159 MiB (2%)
    Title : Jaskier | Многоголосый (закадровый)
    Language : Russian
    Service kind : Complete Main
    Default : No
    Forced : No

    Audio #4
    ID : 5
    Format : AC-3
    Format/Info : Audio Coding 3
    Commercial name : Dolby Digital
    Codec ID : A_AC3
    Duration : 57 min 54 s
    Bit rate mode : Constant
    Bit rate : 640 kb/s
    Channel(s) : 6 channels
    Channel layout : L R C LFE Ls Rs
    Sampling rate : 48.0 kHz
    Frame rate : 31.250 FPS (1536 SPF)
    Bit depth : 16 bits
    Compression mode : Lossy
    Stream size : 265 MiB (4%)
    Title : Кубик в Кубе | Двухголосый (закадровый)
    Language : Russian
    Service kind : Complete Main
    Default : No
    Forced : No

    Audio #5
    ID : 6
    Format : AC-3
    Format/Info : Audio Coding 3
    Commercial name : Dolby Digital
    Codec ID : A_AC3
    Duration : 57 min 54 s
    Bit rate mode : Constant
    Bit rate : 384 kb/s
    Channel(s) : 2 channels
    Channel layout : L R
    Sampling rate : 48.0 kHz
    Frame rate : 31.250 FPS (1536 SPF)
    Bit depth : 16 bits
    Compression mode : Lossy
    Stream size : 159 MiB (2%)
    Title : Gears Media | Двухголосый (закадровый)
    Language : Russian
    Service kind : Complete Main
    Default : No
    Forced : No

    Audio #6
    ID : 7
    Format : E-AC-3
    Format/Info : Enhanced AC-3
    Commercial name : Dolby Digital Plus
    Codec ID : A_EAC3
    Duration : 57 min 33 s
    Bit rate mode : Constant
    Bit rate : 640 kb/s
    Channel(s) : 6 channels
    Channel layout : L R C LFE Ls Rs
    Sampling rate : 48.0 kHz
    Frame rate : 31.250 FPS (1536 SPF)
    Compression mode : Lossy
    Stream size : 263 MiB (4%)
    Title : Оригинальная дорожка
    Language : English
    Service kind : Complete Main
    Default : No
    Forced : No

    Text #1
    ID : 8
    Format : UTF-8
    Codec ID : S_TEXT/UTF8
    Codec ID/Info : UTF-8 Plain Text
    Duration : 35 min 28 s
    Bit rate : 0 b/s
    Count of elements : 5
    Stream size : 192 Bytes (0%)
    Title : Russian (Forced)
    Language : Russian
    Default : Yes
    Forced : Yes

    Text #2
    ID : 9
    Format : UTF-8
    Codec ID : S_TEXT/UTF8
    Codec ID/Info : UTF-8 Plain Text
    Duration : 57 min 17 s
    Bit rate : 88 b/s
    Count of elements : 838
    Stream size : 37.2 KiB (0%)
    Title : Russian
    Language : Russian
    Default : No
    Forced : No

    Text #3
    ID : 10
    Format : UTF-8
    Codec ID : S_TEXT/UTF8
    Codec ID/Info : UTF-8 Plain Text
    Duration : 50 min 50 s
    Bit rate : 38 b/s
    Count of elements : 434
    Stream size : 14.2 KiB (0%)
    Title : English (Forced)
    Language : English
    Default : No
    Forced : No

    Text #4
    ID : 11
    Format : UTF-8
    Codec ID : S_TEXT/UTF8
    Codec ID/Info : UTF-8 Plain Text
    Duration : 55 min 58 s
    Bit rate : 63 b/s
    Count of elements : 745
    Stream size : 25.9 KiB (0%)
    Title : English
    Language : English
    Default : No
    Forced : No

    Text #5
    ID : 12
    Format : UTF-8
    Codec ID : S_TEXT/UTF8
    Codec ID/Info : UTF-8 Plain Text
    Duration : 55 min 58 s
    Bit rate : 69 b/s
    Count of elements : 820
    Stream size : 28.5 KiB (0%)
    Title : English (SDH)
    Language : English
    Default : No
    Forced : NoСкриншоты

    x

    Не пропустите

    Майклу Джею Полларду исполнилось 80 лет

    Сегодня, 30 мая, исполнилось 80 лет американскому актёру, мастеру эпизода Майклу Джею Полларду, запомнившемуся зрителям ...