Ментовская сага / Милицейская сага [01-10 из 12] (2018) SATRip-AVC | Скачать Торрент
Главная » Видео » Сериалы » Ментовская сага / Милицейская сага [01-10 из 12] (2018) SATRip-AVC

Ментовская сага / Милицейская сага [01-10 из 12] (2018) SATRip-AVC

СКАЧАТЬ TORRENT ФАЙЛ

>Информация о фильме
>Название: Ментовская сага | Милицейская сага
>Год выхода: 2018
>Жанр: детектив, криминал
>Режиссер: Петр Забелин, Жанна Коханова

>В ролях: Дмитрий Паламарчук, Андрей Горбачёв, Андрей Гульнев, Максим Блинов, Борис Клюев, Алексей Федькин, Олег Андреев, Анна Арефьева, Олег Абалян, Герасим Архипов, Алексей Байдаков, Сергей Барабаш, Андрей Коровниченко, Наталья Мызникова, Арсений Бородин , Александр Михайлов-Уральский, Андрей Пынзару, Роберт Студеновский, Максим Студеновский, Полина Воробьёва, Сергей Интяков, Арсений Мыцык, Ирина Розанова, Сергей Макаров , Артур Литвинов, Дмитрий Половников, Илья Андрюков, Михаил Самарин, Кира Кауфман, Мария Русских, Любовь Виролайнен , Алексия Белавина, Анастасия Колдаева

>О фильме:
Сериал о жизни целого поколения оперов, настоящих «романтиков розыска». Они пришли на работу в милицию в самом начале 90-х годов и стали непосредственными участниками сложной послеперестроечной жизни страны. В центре повествования судьбы четырех друзей, начавших свою службу в уголовном розыске одного из территориальных отделов.

>Страна: Россия | «Форвард-фильм» | «Прогресс-Студия»
>Продолжительность: ~ 00:45:00
>Язык: Русский

>Файл
>Качество: SATRip-AVC
>Видео: MPEG-4 AVC, ~ 1500 Кбит/с, 720х404
>Звук: AC3, 2 ch, 192 Кбит/с

MediaInfo
Общее
Уникальный идентификатор : 190555832818886738084695402270443199983 (0x8F5BB7EC5CC710FAA6121EF375D45DEF)
Полное имя : E:Ментовская сага1 серия_Ментовская сага_rip by_Aleksan55.mkv
Формат : Matroska
Версия формата : Version 2
Размер файла : 557 Мбайт
Продолжительность : 45 м. 59 с.
Общий поток : 1694 Кбит/сек
Дата кодирования : UTC 2018-08-01 12:52:01
Программа кодирования : mkvmerge v7.8.0 ('River Man') 32bit built on Apr 3 2015 12:11:22
Библиотека кодирования : libebml v1.3.1 + libmatroska v1.4.2

Видео
Идентификатор : 1
Формат : AVC
Формат/Информация : Advanced Video Codec
Профиль формата : High@L4.1
Параметр CABAC формата : Да
Параметр ReFrames формата : 14 кадров
Идентификатор кодека : V_MPEG4/ISO/AVC
Продолжительность : 45 м. 59 с.
Битрейт : 1500 Кбит/сек
Ширина : 720 пикселей
Высота : 404 пикселя
Соотношение сторон : 16:9
Режим частоты кадров : Постоянный
Частота кадров : 25,000 кадров/сек
Цветовое пространство : YUV
Субдискретизация насыщенности : 4:2:0
Битовая глубина : 8 бит
Тип развёртки : Прогрессивная
Бит/(Пиксели*Кадры) : 0.206
Размер потока : 483 Мбайт (87%)
Библиотека кодирования : x264 core 146 r2538 121396c
Настройки программы : cabac=1 / ref=14 / deblock=1:-2:-2 / analyse=0x3:0x133 / me=umh / subme=9 / psy=1 / psy_rd=1.00:0.25 / mixed_ref=0 / me_range=32 / chroma_me=1 / trellis=2 / 8x8dct=1 / cqm=0 / deadzone=6,6 / fast_pskip=1 / chroma_qp_offset=-4 / threads=12 / lookahead_threads=1 / sliced_threads=0 / nr=0 / decimate=0 / interlaced=0 / bluray_compat=0 / constrained_intra=0 / bframes=14 / b_pyramid=2 / b_adapt=1 / b_bias=0 / direct=3 / weightb=1 / open_gop=0 / weightp=2 / keyint=250 / keyint_min=25 / scenecut=40 / intra_refresh=0 / rc_lookahead=40 / rc=2pass / mbtree=1 / bitrate=1500 / ratetol=1.0 / qcomp=0.80 / qpmin=0 / qpmax=39 / qpstep=4 / cplxblur=20.0 / qblur=0.5 / ip_ratio=1.10 / aq=1:1.00
Default : Да
Forced : Нет
Цветовой диапазон : Limited
Основные цвета : BT.601 PAL
Характеристики трансфера : BT.470 System B, BT.470 System G
Коэффициенты матрицы : BT.601

Аудио
Идентификатор : 2
Формат : AC-3
Формат/Информация : Audio Coding 3
Расширение режима : CM (complete main)
Параметр Endianness формата : Big
Идентификатор кодека : A_AC3
Продолжительность : 45 м. 59 с.
Вид битрейта : Постоянный
Битрейт : 192 Кбит/сек
Каналы : 2 канала
Расположение каналов : Front: L R
Частота : 48,0 КГц
Частота кадров : 31,250 кадров/сек (1536 spf)
Битовая глубина : 16 бит
Метод сжатия : С потерями
Размер потока : 63,2 Мбайт (11%)
Default : Да
Forced : Нет
Скриншоты

[/align] Внимание! Раздача ведётся путём добавления новых серийВнимание! Раздача ведётся путём добавления новых серий; при каждом добавлении создаётся новый торрент.
Чтобы начать докачку новой серии, пользователям необходимо сделать следующее:
1. Остановить скачивание;
2. Удалить старый торрент у себя из клиента (старые серии удалять не надо);
3. Скачать новый торрент и запустить его у себя в клиенте вместо старого, при этом указать клиенту путь в старую папку куда и должно происходить скачивание новых серий. Ваш клиент при этом должен произвести хеширование (проверку) старой папки и будет докачивать только те серии, которых у вас ещё нет. Старые серии при этом не удаляются, а продолжают раздаваться! Eсли вы уже удалили старые серии, то предотвратить повторную закачку старых серий можно, отжав галочку в соответствующих местах при запуске нового торрента.

x

Не пропустите

Утиные истории / DuckTales [01×01-23 из 24] (2017) WEBRip 720p | ColdFilm

СКАЧАТЬ TORRENT ФАЙЛ Информация о фильме Название: Утиные истории Оригинальное название: DuckTales Год выпуска: 2017 ...