Главная » Видео » Сериалы » Диетлэнд / Dietland [01×01-07 из 10] (2018) HDTVRip 720p | ColdFilm

Диетлэнд / Dietland [01×01-07 из 10] (2018) HDTVRip 720p | ColdFilm

СКАЧАТЬ TORRENT ФАЙЛ

Информация о фильме
Название: Диетлэнд
Оригинальное название: Dietland
Год выпуска: 2018
Жанр: Комедия
Режиссер: Марти Ноксон
В ролях: Джой Нэш, Джулианна Маргулис, Адам Ротенберг, Тамара Тюни, Уилл Сифрид, Ами Шетх, Дариуш Кашани, Джен Понтон, Марк Таллман

О фильме:
Плам Кэттл (Джой Нэш) работает в подростковом журнале для девочек и отвечает на письма читательниц, весит около ста сорока килограмм и готовится к липосакции. Но все меняется, когда она попадает в самый центр разборок между двумя радикальными феминистическими группировками – «Дом Калиоппы» и «Дженнифер», что приводит к весьма непредсказуемым последствиям.


Страна: США
Студия: AMC Studios, Skydance Television, Tiny Pyro
Продолжительность: 7 x ~ 00:45:00
Перевод: Любительский многоголосый [ColdFilm]

Файл
Кодек: x264
Качество: HDTVRip 720p
Видео: 4000 Кбит/с, 1280×720, 25.000 fps
Аудио: Русский (A3, 2 ch, 125 Кбит/с)

Скриншоты


MI
General
Unique ID : 195253870413836624685725861726792247903 (0x92E4870F66AADDCF05B8FED62614EA5F)
Complete name : D:Dietland.S01.720p.ColdFilmDietland.S01E1-2.720p.ColdFilm.mkv
Format : Matroska
Format version : Version 2
File size : 2.46 GiB
Duration : 1 h 24 min
Overall bit rate : 4 184 kb/s
Encoded date : UTC 2017-11-20 18:25:40 / UTC 2017-11-20 18:25:40
Writing application : Lavf54.63.104
Writing library : Lavf54.63.104

Video
ID : 1
Format : AVC
Format/Info : Advanced Video Codec
Format profile : Main@L3.1
Format settings : CABAC / 1 Ref Frames
Format settings, CABAC : Yes
Format settings, ReFrames : 1 frame
Codec ID : V_MPEG4/ISO/AVC
Duration : 1 h 24 min
Bit rate : 4 000 kb/s
Width : 1 280 pixels
Height : 720 pixels
Display aspect ratio : 16:9
Frame rate mode : Constant
Frame rate : 25.000 FPS
Color space : YUV
Chroma subsampling : 4:2:0
Bit depth : 8 bits
Scan type : Progressive
Bits/(Pixel*Frame) : 0.174
Stream size : 2.30 GiB (93%)
Writing library : x264 core 129
Default : Yes
Forced : No

Audio
ID : 2
Format : AC-3
Format/Info : Audio Coding 3
Codec ID : A_AC3
Duration : 1 h 24 min
Bit rate mode : Constant
Bit rate : 192 kb/s
Channel(s) : 2 channels
Channel positions : Front: L R
Sampling rate : 48.0 kHz
Frame rate : 31.250 FPS (1536 SPF)
Bit depth : 16 bits
Compression mode : Lossy
Stream size : 116 MiB (5%)
Service kind : Complete Main
Default : Yes
Forced : No

x

Не пропустите

Симпсоны / The Simpsons [30×01-07 из 21] (2018) WEBRip 1080p | ColdFilm

СКАЧАТЬ TORRENT ФАЙЛ Информация о фильме Название: Симпсоны Оригинальное название: The Simpsons Год выпуска: 2018 ...