Главная » Видео » Сериалы » Чужестранка / Outlander [04×01-06 из 13] (2018) WEBRip 720p | LakeFilms

Чужестранка / Outlander [04×01-06 из 13] (2018) WEBRip 720p | LakeFilms

СКАЧАТЬ TORRENT ФАЙЛ

Название: Чужестранка
Оригинальное название: Outlander
Год выпуска: 2018
Жанр: Фантастика, драма, мелодрама
Выпущено: США, Left Bank Productions, Sony Pictures Television
Режиссер: Джон Дал, Анна Ферстер, Брайан Келли
В ролях: Катрина Балф, Сэм Хьюэн, Тобайас Мензис, Грэм МакТавиш, Дункан Лакруа, Грант О`Рурк, Стивен Уолтерс, Джеймс Флит, Трэйси Уилкинсон, Финн Ден Хертог

О фильме: Сериал рассказывает историю Клэр Рэндалл, военной медсестры из 40-х годов XX века, которая во время прогулки у легендарных шотландских каменных кругов загадочно перемещается во времени в 1743-й год. Попадая в XVIII век, Клэр оказывается в неизвестном мире, где ее жизни угрожает опасность. Девушка должна найти возможность выжить и вернуться обратно в будущее, где остался ее муж Фрэнк Рэндалл. Чтобы спастись в неизвестном и незнакомом героине прошлом, она вынуждена выйти замуж за Джейми Фрейзера, галантного шотландского воина со сложной судьбой и обезоруживающим чувством юмора.

Техданные
Качество: WEBRip (720p)
Видео: MPEG-4 AVC, ~ 3000 Kbps, 1280×720, 23.976 FPS
Аудио: AC3, 2 ch, 256 Кбит/с
Продолжительность: 6 x ~ 01:05:00
Перевод: Любительский двухголосый закадровый (LakeFilms)
Присутствует реклама!

Скриншоты


MIGeneral
Unique ID : 44541023969180879297204944031624961372 (0x21824A07CE0620B75BC354E4823B9D5C)
Complete name : E:Outlander.S04.1080p.LakeFilmsOutlander.S04E01.720p.WEBRip.LakeFilms.mkv
Format : Matroska
Format version : Version 4 / Version 2
File size : 1.49 GiB
Duration : 1h 5mn
Overall bit rate : 3 274 Kbps
Writing application : XviD4PSP 7.0.461 DAILY
Writing library : Lavf57.71.100
ENCODING_INFO : MATROSKA,WEBM > MKV / H264 > X264 ABR 3000kbps Very Fast / AC3 > AC3 CBR 256kbps

Video
ID : 1
Format : AVC
Format/Info : Advanced Video Codec
Format profile : High@L3.1
Format settings, CABAC : Yes
Format settings, ReFrames : 4 frames
Codec ID : V_MPEG4/ISO/AVC
Duration : 1h 5mn
Bit rate : 3 000 Kbps
Width : 1 280 pixels
Height : 720 pixels
Display aspect ratio : 16:9
Frame rate mode : Constant
Frame rate : 23.976 fps
Color space : YUV
Chroma subsampling : 4:2:0
Bit depth : 8 bits
Scan type : Progressive
Bits/(Pixel*Frame) : 0.136
Stream size : 1.34 GiB (90%)
Writing library : x264 core 157 r2935M 545de2f
Encoding settings : cabac=1 / ref=1 / deblock=1:-2:-2 / analyse=0x3:0x113 / me=hex / subme=2 / psy=1 / psy_rd=1.00:0.00 / mixed_ref=0 / me_range=16 / chroma_me=1 / trellis=0 / 8x8dct=1 / cqm=0 / deadzone=21,11 / fast_pskip=1 / chroma_qp_offset=0 / threads=5 / lookahead_threads=1 / sliced_threads=0 / nr=0 / decimate=1 / interlaced=0 / bluray_compat=0 / constrained_intra=0 / bframes=3 / b_pyramid=2 / b_adapt=1 / b_bias=0 / direct=1 / weightb=1 / open_gop=0 / weightp=1 / keyint=240 / keyint_min=24 / scenecut=40 / intra_refresh=0 / rc_lookahead=10 / rc=abr / mbtree=1 / bitrate=3000 / ratetol=1.0 / qcomp=0.60 / qpmin=0 / qpmax=69 / qpstep=4 / ip_ratio=1.40 / aq=1:1.00
Default : Yes
Forced : No

Audio
ID : 2
Format : AC-3
Format/Info : Audio Coding 3
Mode extension : CM (complete main)
Format settings, Endianness : Big
Codec ID : A_AC3
Duration : 1h 5mn
Bit rate mode : Constant
Bit rate : 256 Kbps
Channel(s) : 2 channels
Channel positions : Front: L R
Sampling rate : 48.0 KHz
Bit depth : 16 bits
Compression mode : Lossy
Stream size : 119 MiB (8%)
Default : Yes
Forced : No

x

Не пропустите

Люди Икс: Тёмный Феникс / Dark Phoenix (2019) HDRip 1080p | Трейлер

СКАЧАТЬ TORRENT ФАЙЛ Год выпуска: 2019 Производство: США / 20th Century Fox Film Corporation, Marvel ...