Главная » Видео » Сериалы » Челночницы [S02] (2018) SATRip-AVC

Челночницы [S02] (2018) SATRip-AVC

СКАЧАТЬ TORRENT ФАЙЛ

>Информация о фильме
>Название: Челночницы. Продолжение
>Год выхода: 2018
>Жанр: мелодрама
>Режиссер: Сергей Краснов, Юлия Краснова

>В ролях: Ирина Розанова, Светлана Иванова, Мария Порошина, Игорь Бочкин, Елена Панова, Софья Каштанова, Зоряна Марченко, Константин Юшкевич, Вадим Колганов, Владимир Епифанцев, Артур Ваха, Александр Дьяченко, Илья Соколовский, Артём Фадеев, Валентина Ляпина, Анастасия Матвеева, Сергей Ракша, Владимир Юматов, Любовь Фирсова, Татьяна Агафонова, Валентина Панина, Валерий Шальных, Михаил Пшеничный, Анастасия Салтыкова, Артём Осипов, Макар Запорожский, Олег Макаров, Екатерина Травова, Людмила Гнилова, Артем Тульчинский, Дарья Белоусова, Сергей Перегудов, Микаэл Джанибекян, Илья Акинтьев, Оксана Мысина, Мария Сурова, Ксения Радченко , Андрей Фомин, Екатерина Воронина , Максим Макаров, Юлия Ванюкова, Елизавета Зарубина, Савелий Кудряшов, Вера Смолина, Анастасия Сорокина

>О фильме:
1998 год. Жизнь челночниц, кажется, наконец, вошла в нормальное русло. Ольга, Света, Элла и Алиса открыли собственный магазин элитной одежды. Элла теперь не только богатая женщина, а еще и полноправная владелица рынка, который она с большим трудом приватизировала. Но неожиданно появляется Беркут – убийца мужа Эллы и бывший хозяин рынка. Он собирается любой ценой вернуть своё!Но у хрупкой Эллы внутри стальной стержень. Элла не сдается и ставит на рынок подруг, которым безмерно доверяет. Так Ольга, Света и Алиса снова оказываются в самом пекле. Оля скрепя сердце соглашается стать директором рынка. Под силу ли ей такая ноша? Удастся ли скромной и интеллигентной Ольге заставить уважать себя, не разрушив при этом собственную семью? Света готова вернуться на рынок только на своих условиях. Она больше не желает возиться с «тряпками», а хочет играть по-крупному – открыть свою автомастерскую и перегонять автомобили из-за границы. Но большие ставки –большой риск.

>Страна: Россия | Кинокомпания «Русское»
>Продолжительность: ~ 00:50:00
>Язык: Русский

>Файл
>Качество: SATRip-AVC
>Видео: MPEG-4 AVC, ~ 1700 Кбит/с, 720х400
>Звук: AC3, 2 ch, 192 Кбит/с

MediaInfo
Общее
Уникальный идентификатор : 202875485313261471054881971693870884559 (0x98A065AFDCA864ADA18AC8DD1F97A6CF)
Полное имя : F:Челночницы-2�1 серия_Челночницы-2_rip by_Aleksan55.mkv
Формат : Matroska
Версия формата : Version 2
Размер файла : 717 Мбайт
Продолжительность : 50 м. 14 с.
Общий поток : 1994 Кбит/сек
Дата кодирования : UTC 2018-09-03 21:59:41
Программа кодирования : mkvmerge v7.8.0 ('River Man') 32bit built on Apr 3 2015 12:11:22
Библиотека кодирования : libebml v1.3.1 + libmatroska v1.4.2

Видео
Идентификатор : 1
Формат : AVC
Формат/Информация : Advanced Video Codec
Профиль формата : High@L4.1
Параметр CABAC формата : Да
Параметр ReFrames формата : 14 кадров
Идентификатор кодека : V_MPEG4/ISO/AVC
Продолжительность : 50 м. 14 с.
Битрейт : 1800 Кбит/сек
Ширина : 720 пикселей
Высота : 400 пикселей
Соотношение сторон : 16:9
Режим частоты кадров : Постоянный
Частота кадров : 25,000 кадров/сек
Цветовое пространство : YUV
Субдискретизация насыщенности : 4:2:0
Битовая глубина : 8 бит
Тип развёртки : Прогрессивная
Бит/(Пиксели*Кадры) : 0.250
Размер потока : 633 Мбайт (88%)
Библиотека кодирования : x264 core 146 r2538 121396c
Настройки программы : cabac=1 / ref=14 / deblock=1:-1:-1 / analyse=0x3:0x133 / me=umh / subme=9 / psy=1 / psy_rd=0.90:0.00 / mixed_ref=0 / me_range=32 / chroma_me=1 / trellis=2 / 8x8dct=1 / cqm=0 / deadzone=21,11 / fast_pskip=1 / chroma_qp_offset=-2 / threads=12 / lookahead_threads=1 / sliced_threads=0 / nr=0 / decimate=0 / interlaced=0 / bluray_compat=0 / constrained_intra=0 / bframes=14 / b_pyramid=2 / b_adapt=1 / b_bias=0 / direct=3 / weightb=1 / open_gop=0 / weightp=2 / keyint=250 / keyint_min=25 / scenecut=40 / intra_refresh=0 / rc_lookahead=40 / rc=2pass / mbtree=1 / bitrate=1800 / ratetol=1.0 / qcomp=0.60 / qpmin=0 / qpmax=39 / qpstep=4 / cplxblur=20.0 / qblur=0.5 / ip_ratio=1.40 / aq=1:1.00
Default : Да
Forced : Нет
Цветовой диапазон : Limited
Основные цвета : BT.601 PAL
Характеристики трансфера : BT.470 System B, BT.470 System G
Коэффициенты матрицы : BT.601

Аудио
Идентификатор : 2
Формат : AC-3
Формат/Информация : Audio Coding 3
Расширение режима : CM (complete main)
Параметр Endianness формата : Big
Идентификатор кодека : A_AC3
Продолжительность : 50 м. 14 с.
Вид битрейта : Постоянный
Битрейт : 192 Кбит/сек
Каналы : 2 канала
Расположение каналов : Front: L R
Частота : 48,0 КГц
Частота кадров : 31,250 кадров/сек (1536 spf)
Битовая глубина : 16 бит
Метод сжатия : С потерями
Размер потока : 69,0 Мбайт (10%)
Default : Да
Forced : Нет
:
Скриншоты

x

Не пропустите

Ana Popovic — Like It on Top (2018) MP3

СКАЧАТЬ TORRENT ФАЙЛ Исполнитель: Ana Popovic Название: Like It on Top Год: 2018 Жанр: Blues, ...