Главная » Видео » Наши фильмы » Тренер (2018) WEB-DLRip-AVC от OlLanDGroup | iTunes

Тренер (2018) WEB-DLRip-AVC от OlLanDGroup | iTunes

СКАЧАТЬ TORRENT ФАЙЛ

Тренер

Год выпуска: 2018
Страна: Россия
Производство: DK Entertainment, Кинослово, Студия Тритэ
Жанр: Драма, спорт

Режиссёр: Данила Козловский
В ролях: Данила Козловский, Владимир Ильин, Андрей Смоляков, Ольга Зуева, Ирина Горбачёва, Виктор Вержбицкий, Мария Лобанова, Павел Ворожцов, Игорь Гордин, Александр Ильин

Перевод: Не требуется | iTunes
Субтитры: Нет
Реклама: Отсутствует

Описание: Футболист национальной сборной Юрий Столешников в ответственный момент не забивает пенальти. После досадной ошибки Столешников покидает сборную, завершает карьеру и становится тренером маленькой провинциальной команды. Именно с этим клубом Столешникову предстоит совершить чудо и вновь поверить в себя.

Качество: WEB-DLRip-AVC
Продолжительность: 02:12:23

Формат: MKV
Видео кодек: MPEG-4 AVC
Аудио кодек: AC3
Видео: 1024×428 (2.40:1), 25,000 fps, x264 ~1 971 kbps avg, 0.180 bit/pixel
Аудио: 48 kHz, AC3 Dolby Digital, 3/2 (L,C,R,l,r) + LFE ch, ~384.00 kbps avg | RUS (iTunes)

Дата премьеры (мир): 20 апреля 2018
Дата премьеры (РФ): 19 апреля 2018, «Централ Партнершип»

-06-14 07:14:53
Программа кодирования : mkvmerge v8.3.0 ('Over the Horizon') 64bit
Библиотека кодирования : libebml v1.3.1 + libmatroska v1.4.2

Видео
Идентификатор : 1
Формат : AVC
Формат/Информация : Advanced Video Codec
Профиль формата : High@L4.1
Параметр CABAC формата : Да
Параметр ReFrames формата : 10 кадров
Идентификатор кодека : V_MPEG4/ISO/AVC
Продолжительность : 2 ч. 12 м.
Битрейт : 1971 Кбит/сек
Ширина : 1024 пикселя
Высота : 428 пикселей
Соотношение сторон : 2,40:1
Режим частоты кадров : Постоянный
Частота кадров : 25,000 кадров/сек
Цветовое пространство : YUV
Субдискретизация насыщенности : 4:2:0
Битовая глубина : 8 бит
Тип развёртки : Прогрессивная
Бит/(Пиксели*Кадры) : 0.180
Размер потока : 1,82 Гбайт (84%)
Библиотека кодирования : x264 core 146 r2538 121396c
Настройки программы : cabac=1 / ref=10 / deblock=1:-3:-3 / analyse=0x3:0x113 / me=umh / subme=11 / psy=1 / psy_rd=0.99:0.05 / mixed_ref=1 / me_range=48 / chroma_me=1 / trellis=2 / 8x8dct=1 / cqm=0 / deadzone=21,11 / fast_pskip=1 / chroma_qp_offset=-3 / threads=6 / lookahead_threads=1 / sliced_threads=0 / nr=0 / decimate=1 / interlaced=0 / bluray_compat=0 / constrained_intra=0 / bframes=10 / b_pyramid=2 / b_adapt=2 / b_bias=0 / direct=3 / weightb=1 / open_gop=0 / weightp=2 / keyint=250 / keyint_min=25 / scenecut=40 / intra_refresh=0 / rc_lookahead=40 / rc=2pass / mbtree=1 / bitrate=1971 / ratetol=1.0 / qcomp=0.60 / qpmin=0 / qpmax=69 / qpstep=4 / cplxblur=20.0 / qblur=0.5 / vbv_maxrate=50000 / vbv_bufsize=62500 / nal_hrd=none / filler=0 / ip_ratio=1.40 / aq=1:1.00
Default : Да
Forced : Нет

Аудио
Идентификатор : 2
Формат : AC-3
Формат/Информация : Audio Coding 3
Расширение режима : CM (complete main)
Параметр Endianness формата : Big
Идентификатор кодека : A_AC3
Продолжительность : 2 ч. 12 м.
Вид битрейта : Постоянный
Битрейт : 384 Кбит/сек
Каналы : 6 каналов
Расположение каналов : Front: L C R, Side: L R, LFE
Частота : 48,0 КГц
Частота кадров : 31,250 кадров/сек (1536 spf)
Битовая глубина : 16 бит
Метод сжатия : С потерями
Размер потока : 364 Мбайт (16%)
Заголовок : [ORIGINAL] DD 5.1 @ 384 kbps (iTunes)
Язык : Russian
Default : Да
Forced : Нет

Меню
00:00:00.000 : en:Глава 1
00:07:17.200 : en:Глава 2
00:13:05.320 : en:Глава 3
00:18:35.600 : en:Глава 4
00:24:13.640 : en:Глава 5
00:30:04.160 : en:Глава 6
00:35:46.720 : en:Глава 7
00:44:29.440 : en:Глава 8
00:48:58.000 : en:Глава 9
00:55:35.480 : en:Глава 10
01:00:44.560 : en:Глава 11
01:06:40.880 : en:Глава 12
01:12:00.680 : en:Глава 13
01:18:41.800 : en:Глава 14
01:23:26.960 : en:Глава 15
01:30:37.200 : en:Глава 16
01:37:07.720 : en:Глава 17
01:42:34.680 : en:Глава 18
01:50:35.840 : en:Глава 19
01:56:52.320 : en:Глава 20

Скриншоты



x

Не пропустите

Гора 2 / Dag 2 (2016) WEB-DLRip | LakeFilms

СКАЧАТЬ TORRENT ФАЙЛ Название: Гора 2 Оригинальное название: Dag II (The Mountain II, Brothers in ...