Главная » Видео » Наши фильмы » Тренер (2018) WEB-DLRip-AVC от ExKinoRay | iTunes

Тренер (2018) WEB-DLRip-AVC от ExKinoRay | iTunes

СКАЧАТЬ TORRENT ФАЙЛ

Информация о фильме
Название: Тренер
Год выпуска: 2018
Жанр: драма, спорт
Режиссер: Данила Козловский
В ролях: Данила Козловский, Владимир Ильин, Андрей Смоляков, Ольга Зуева, Ирина Горбачева, Виктор Вержбицкий, Мария Лобанова, Павел Ворожцов,Игорь Гордин, Александр Ильин мл.

О фильме :
Юрий Столешников — легендарный футболист прошлого столетия. В одну минуту болельщики замерли, фанаты кричат, все ждут одного — последний гол Столешникова и победа в Чемпионате, но все оказывается куда хуже, чем предполагали. Юрий не попадает по воротам, матч оканчивается победой команды противника. Столешников в отставке, не зная, куда идти и чем зарабатывать на жизнь. Проникнувший в его ситуацию знакомый предлагает ему выгодное предложение — стать тренером некогда неизвестной сборной по футболу. Думая, что это единственный шанс — он соглашается, даже и не подозревая о том, что жизнь даст ему второй шанс стать Чемпионом.

Страна: Россия
Студия: DK Entertainment, Кинослово, Студия Тритэ
Продолжительность: 02:12:22
Язык: Русский | iTunes

Файл
Формат: MKV
Качество: WEB-DLRip-AVC
Видео: MPEG-4 AVC , 768×320, ~ 711 Кбит/с
Аудио:

AAC -HE, 2 ch, ~ 76 Кбит/с
Субтитры: Нет

MIОбщее
Уникальный идентификатор : 181087235232567665805691365840544217536 (0x883C2204F3D9896A8D9B09BEE98E39C0)
Полное имя : D:MOVIESTRENER.2018.ExKinoRay.mkv
Формат : Matroska
Версия формата : Version 4 / Version 2
Размер файла : 747 Мбайт
Продолжительность : 2 ч. 12 м.
Общий поток : 789 Кбит/сек
Дата кодирования : UTC 2018-06-14 14:08:21
Программа кодирования : mkvmerge v15.0.0 ('Duel with the Devil') 64-bit
Библиотека кодирования : libebml v1.3.5 + libmatroska v1.4.5

Видео
Идентификатор : 1
Формат : AVC
Формат/Информация : Advanced Video Codec
Профиль формата : High@L4.1
Параметр CABAC формата : Да
Параметр RefFrames формата : 10 кадров
Идентификатор кодека : V_MPEG4/ISO/AVC
Продолжительность : 2 ч. 12 м.
Битрейт : 711 Кбит/сек
Ширина : 768 пикселей
Высота : 320 пикселей
Соотношение сторон : 2,40:1
Режим частоты кадров : Постоянный
Частота кадров : 25,000 кадров/сек
Цветовое пространство : YUV
Субдискретизация насыщенности : 4:2:0
Битовая глубина : 8 бит
Тип развёртки : Прогрессивная
Бит/(Пиксели*Кадры) : 0.116
Размер потока : 673 Мбайт (90%)
Библиотека кодирования : x264 core 152 r2851kMod ba24899
Настройки программы : cabac=1 / ref=10 / deblock=1:-3:-2 / analyse=0x3:0x133 / me=umh / subme=11 / psy=1 / fade_compensate=0.00 / psy_rd=1.00:0.15 / mixed_ref=1 / me_range=32 / chroma_me=1 / trellis=2 / 8x8dct=1 / cqm=0 / deadzone=21,11 / fast_pskip=0 / chroma_qp_offset=-3 / threads=6 / lookahead_threads=1 / sliced_threads=0 / nr=0 / decimate=0 / interlaced=0 / bluray_compat=0 / constrained_intra=0 / bframes=10 / b_pyramid=2 / b_adapt=2 / b_bias=0 / direct=3 / weightb=1 / open_gop=0 / weightp=2 / keyint=250 / keyint_min=24 / scenecut=40 / intra_refresh=0 / rc_lookahead=40 / rc=2pass / mbtree=1 / bitrate=711 / ratetol=1.0 / qcomp=0.60 / qpmin=0 / qpmax=69 / qpstep=4 / cplxblur=20.0 / qblur=0.5 / vbv_maxrate=50000 / vbv_bufsize=62500 / nal_hrd=none / filler=0 / ip_ratio=1.40 / aq=3:1.00
Default : Да
Forced : Нет

Аудио
Идентификатор : 2
Формат : AAC
Формат/Информация : Advanced Audio Codec
Профиль формата : HE-AAC / LC
Идентификатор кодека : A_AAC
Продолжительность : 2 ч. 12 м.
Битрейт : 76,0 Кбит/сек
Каналы : 2 канала
Расположение каналов : Front: L R
Частота : 48,0 КГц / 24,0 КГц
Частота кадров : 23,438 кадра/сек (1024 SPF)
Метод сжатия : С потерями
Задержка видео : 31 мс.
Размер потока : 72,0 Мбайт (10%)
Default : Да
Forced : Нет
Скриншоты

x

Не пропустите

Умер создатель комиксов Marvel Стэн Ли

Американский писатель, актер, продюсер, сценарист, редактор, бывший президент Marvel Comics, создатель самых известных персонажей комиксов ...