Главная » Видео » Наши фильмы » Собибор (2018) WEB-DLRip 720p от MIXTV | iTunes

Собибор (2018) WEB-DLRip 720p от MIXTV | iTunes

СКАЧАТЬ TORRENT ФАЙЛ

Информация о фильме
Название: Собибор
Год выхода: 2018
Жанр: военный, драма
Режиссер: Константин Хабенский
В ролях: Константин Хабенский, Кристофер Ламберт, Фелисе Янкелль, Дайнюс Казлаускас, Сергей Годин, Роман Агеев, Гела Месхи, Михалина Ольшанска, Мария Кожевникова, Вольфганг Черны

О фильме:
История сопротивления человеческого духа бездушной машине уничтожения. В октябре 1943 года заключённые лагеря Собибор во главе с лейтенантом Красной Армии Александром Печерским поднимают восстание — единственное успешное восстание в нацистском лагере смерти.


Страна: Россия
Студия: Патриот Продакшнс
Продолжительность: 01:57:05
Перевод: Оригинальный | iTunes

Файл
Кодек: h.264
Качество: WEB-DLRip 720p
Видео: 1280×536, 2200 Kbps, 24.000 fps
Аудио: AC3, 6 ch, 384 Kbps
Субтитры: Отсутствуют
MediaInfoGeneral
Unique ID : 94518753608561758240268672135817695877 (0x471BA658831ECF66B3E065B77CF59285)
Complete name : Sobibor.2O18.O.WEBRip.72Op.MIXTV.mkv
Format : Matroska
Format version : Version 4 / Version 2
File size : 2.20 GiB
Duration : 1 h 57 min
Overall bit rate : 2 685 kb/s
Movie name : Sobibor.2O18.O.WEBRip.72Op from MIXTV
Encoded date : UTC 2018-06-04 05:35:57
Writing application : mkvmerge v23.0.0 ('The Bride Said No') 64-bit
Writing library : libebml v1.3.6 + libmatroska v1.4.9

Video
ID : 1
Format : AVC
Format/Info : Advanced Video Codec
Format profile : High@L4.1
Format settings : CABAC / 9 Ref Frames
Format settings, CABAC : Yes
Format settings, RefFrames : 9 frames
Codec ID : V_MPEG4/ISO/AVC
Duration : 1 h 57 min
Bit rate : 2 300 kb/s
Width : 1 280 pixels
Height : 536 pixels
Display aspect ratio : 2.40:1
Frame rate mode : Constant
Frame rate : 24.000 FPS
Color space : YUV
Chroma subsampling : 4:2:0
Bit depth : 8 bits
Scan type : Progressive
Bits/(Pixel*Frame) : 0.140
Stream size : 1.88 GiB (86%)
Title : Sobibor.2O18
Writing library : x264 core 155 r2893 b00bcaf
Encoding settings : cabac=1 / ref=9 / deblock=1:-1:-1 / analyse=0x3:0x133 / me=umh / subme=10 / psy=1 / psy_rd=1.00:0.15 / mixed_ref=1 / me_range=24 / chroma_me=1 / trellis=2 / 8x8dct=1 / cqm=0 / deadzone=21,11 / fast_pskip=1 / chroma_qp_offset=-3 / threads=6 / lookahead_threads=1 / sliced_threads=0 / nr=0 / decimate=1 / interlaced=0 / bluray_compat=0 / constrained_intra=0 / bframes=6 / b_pyramid=2 / b_adapt=2 / b_bias=0 / direct=3 / weightb=1 / open_gop=0 / weightp=2 / keyint=240 / keyint_min=24 / scenecut=40 / intra_refresh=0 / rc_lookahead=60 / rc=2pass / mbtree=1 / bitrate=2300 / ratetol=1.0 / qcomp=0.60 / qpmin=0 / qpmax=69 / qpstep=4 / cplxblur=20.0 / qblur=0.5 / vbv_maxrate=62500 / vbv_bufsize=78125 / nal_hrd=none / filler=0 / ip_ratio=1.40 / aq=1:1.00
Language : Russian
Default : Yes
Forced : No
Color range : Limited
Color primaries : BT.709
Transfer characteristics : BT.709
Matrix coefficients : BT.709

Audio
ID : 2
Format : AC-3
Format/Info : Audio Coding 3
Codec ID : A_AC3
Duration : 1 h 57 min
Bit rate mode : Constant
Bit rate : 384 kb/s
Channel(s) : 6 channels
Channel positions : Front: L C R, Side: L R, LFE
Sampling rate : 48.0 kHz
Frame rate : 31.250 FPS (1536 SPF)
Bit depth : 16 bits
Compression mode : Lossy
Stream size : 322 MiB (14%)
Title : iTunes
Language : Russian
Service kind : Complete Main
Default : Yes
Forced : Yes
Скриншоты

x

Не пропустите

AOMEI Partition Assistant Technician 7.5 (2018) РС | RePack by KpoJIuK

СКАЧАТЬ TORRENT ФАЙЛ Версия программы: 7.5 Официальный сайт: AOMEI Partition Assistant Язык интерфейса: Русский, Английский, ...