Главная » Видео » Наши фильмы » Первые (2017) WEB-DLRip от R.G.Resident | Line

Первые (2017) WEB-DLRip от R.G.Resident | Line

СКАЧАТЬ TORRENT ФАЙЛ

Информация о фильме
Название: Первые
Год выпуска: 2017
Страна: Россия
Жанр: драма, приключения, история
Перевод: Не требуется [Русский] (Line)
Примечание: Релиз без рекламы
Продолжительность: 01:36:15
Режиссер: Дмитрий Суворов
В ролях: Наиль Абдрахманов (Василий Прончищев), Алина Ланина (Татьяна Прончищева), Евгений Ткачук (Семён Челюскин), Валерий Баринов (Витус Беринг), Данила Якушев (боцман), Сергей Рост (Фарварсон), Сергей Терещенко, Александр Дьяченко (Пётр I), Егор Тимцуник

Описание:
Лента расскажет о подвиге и любви супругов Прончищевых — полярных исследователей Арктики в составе Ленско-Енисейского отряда Великой Северной экспедиции.
Рейтинг:


Качество: WEB-DLRip
Формат: AVI
Видео: XviD, 720×320 (2.25:1), 1803 kbps, 24 fps, 0,326 bpp
Аудио: AC3 / 2.0 / 48 kHz / 224 kbps /
Сэмпл

Format/Info : Audio Video Interleave
File size : 1.37 GiB
Duration : 1 h 36 min
Overall bit rate : 2 037 kb/s
Writing application : VirtualDubModRus 1.5.10.2 (build 2542/release)
Writing library : VirtualDubMod build 2542/release

Video
ID : 0
Format : MPEG-4 Visual
Format profile : Advanced Simple@L5
Format settings, BVOP : 1
Format settings, QPel : No
Format settings, GMC : No warppoints
Format settings, Matrix : Custom
Codec ID : XVID
Codec ID/Hint : XviD
Duration : 1 h 36 min
Bit rate : 1 804 kb/s
Width : 720 pixels
Height : 320 pixels
Display aspect ratio : 2.25:1
Frame rate : 24.000 FPS
Color space : YUV
Chroma subsampling : 4:2:0
Bit depth : 8 bits
Scan type : Progressive
Compression mode : Lossy
Bits/(Pixel*Frame) : 0.326
Stream size : 1.21 GiB (89%)
Writing library : XviD 73

Audio
ID : 1
Format : AC-3
Format/Info : Audio Coding 3
Mode extension : CM (complete main)
Format settings, Endianness : Big
Codec ID : 2000
Duration : 1 h 36 min
Bit rate mode : Constant
Bit rate : 224 kb/s
Channel(s) : 2 channels
Channel positions : Front: L R
Sampling rate : 48.0 kHz
Frame rate : 31.250 FPS (1536 spf)
Compression mode : Lossy
Stream size : 154 MiB (11%)
Alignment : Split accross interleaves
Interleave, duration : 42 ms (1.00 video frame)
Interleave, preload duration : 500 ms
Скриншоты

x

Не пропустите

ATOM RPG: Post-apocalyptic indie game [v 0.7.5 | Early Access] (2017) PC | Steam-Rip

СКАЧАТЬ TORRENT ФАЙЛ Год выпуска: 2017 Жанр: RPG Разработчик: AtomTeam Издательство: AtomTeam Версия игры: 0.7.5 ...