Главная » Видео » Наши фильмы » Мертвым повезло (2017) WEB-DL 1080p | iTunes

Мертвым повезло (2017) WEB-DL 1080p | iTunes

СКАЧАТЬ TORRENT ФАЙЛ

Информация о фильме
Название: Мертвым повезло
Год выхода: 2017
Жанр: Комедия, ужасы
Страна: Россия
Перевод: Не требуется
Продолжительность: 01:29:32
Режиссер: Вадим Валиуллин
В ролях: Дмитрий Богдан, Алексей Дербунович, Андрей Поведский, Валерий Гриньков, Александрина Баландина, Антон Болдырев, Полина Шабаева, Тамара Адамова, Владислав Арсланов, Николай Рихтер и др.

О фильме: Молодой парень оказывается втянутым в криминальную банду, в которой состоит его старший брат. Парень вынужден пойти на свое первое «настоящее дело» вместе с матерыми уголовниками, чтобы доказать свою профпригодность. Перед бандой стоит задача выполнить заказное убийство и обставить все дело, как очередной всплеск активности серийного маньяка, который уже несколько месяцев держит в страхе весь город. Но на деле банда уголовников сталкивается с настоящим маньяком, который внимательно наблюдал за убийцами-подражателями, и его не устроило качество их работы. Теперь маньяк открывает охоту на убийц, чтобы показать ценой их жизней, как работает настоящий профи.

Файл
Качество: WEB-DL 1080p
Видео: MPEG-4 AVC, 1920×804, 4532 kbps, 25,000 fps
Звук: русский, AC3, 6 ch, 48 kHz, 384 kbps | iTunes
Субтитры: нет

MIОбщее
Уникальный идентификатор : 207999581650540285773322026366112429472 (0x9C7B4324435368A29933E9854D84F5A0)
Полное имя : G:DelugeМертвым повезло (1080p HD).mkv
Формат : Matroska
Версия формата : Version 4 / Version 2
Размер файла : 3,08 Гбайт
Продолжительность : 1 ч. 29 м.
Общий поток : 4918 Кбит/сек
Дата кодирования : UTC 2018-05-05 10:38:00
Программа кодирования : mkvmerge v9.5.0 ('Quiet Fire') 64bit
Библиотека кодирования : libebml v1.3.4 + libmatroska v1.4.5

Видео
Идентификатор : 1
Формат : AVC
Формат/Информация : Advanced Video Codec
Профиль формата : High@L4
Настройки формата : CABAC / 5 Ref Frames
Параметр CABAC формата : Да
Параметр RefFrames формата : 5 кадров
Идентификатор кодека : V_MPEG4/ISO/AVC
Продолжительность : 1 ч. 29 м.
Битрейт : 4532 Кбит/сек
Ширина : 1920 пикселей
Высота : 804 пикселя
Соотношение сторон : 2,40:1
Режим частоты кадров : Постоянный
Частота кадров : 25,000 кадров/сек
Цветовое пространство : YUV
Субдискретизация насыщенности : 4:2:0
Битовая глубина : 8 бит
Тип развёртки : Прогрессивная
Бит/(Пиксели*Кадры) : 0.117
Размер потока : 2,83 Гбайт (92%)
Язык : English
Default : Да
Forced : Нет
Цветовой диапазон : Limited
Основные цвета : BT.709
Характеристики трансфера : BT.709
Коэффициенты матрицы : BT.709

Аудио
Идентификатор : 2
Формат : AC-3
Формат/Информация : Audio Coding 3
Идентификатор кодека : A_AC3
Продолжительность : 1 ч. 29 м.
Вид битрейта : Постоянный
Битрейт : 384 Кбит/сек
Каналы : 6 каналов
Расположение каналов : Front: L C R, Side: L R, LFE
Частота : 48,0 КГц
Частота кадров : 31,250 кадров/сек (1536 SPF)
Битовая глубина : 16 бит
Метод сжатия : С потерями
Размер потока : 246 Мбайт (8%)
Язык : Russian
Default : Да
Forced : Нет

Меню
00:00:00.000 : en:Глава 1
00:07:22.920 : en:Глава 2
00:14:29.120 : en:Глава 3
00:21:44.520 : en:Глава 4
00:29:11.600 : en:Глава 5
00:36:39.440 : en:Глава 6
00:43:40.440 : en:Глава 7
00:50:50.280 : en:Глава 8
00:57:55.600 : en:Глава 9
01:05:19.440 : en:Глава 10
01:12:33.000 : en:Глава 11
01:19:43.400 : en:Глава 12

Скриншоты


x

Не пропустите

Сдаётся домик у моря [01-20 из 20] (2017-2018) WEBRip 720p от Files-x

СКАЧАТЬ TORRENT ФАЙЛ Информация о фильме Оригинальное название: Сдаётся домик у моря Год выхода: 2017-2018 ...