Главная » Видео » Наши фильмы » Майор (2013) BDRip 1080p

Майор (2013) BDRip 1080p

СКАЧАТЬ TORRENT ФАЙЛ

Информация о фильме
Название: Майор
Оригинальное название: Майор
Год выхода: 2013
Жанр: криминал, драма
Режиссер: Юрий Быков
В ролях: Денис Шведов, Ирина Низина, Юрий Быков, Дмитрий Куличков, Кирилл Полухин, Борис Невзоров, Илья Исаев, Владислав Толдыков, Евгений Кочетков, Павел Басов

О фильме:
В день долгожданных родов своей жены майор полиции Сергей Соболев мчится в роддом вне себя от счастья. На скользкой зимней дороге он насмерть сбивает семилетнего мальчика на глазах у несчастной матери. Превышение скорости, неосторожность и пешеходный переход — доказательства очевидны, как и нежелание молодого отца угодить за решетку. Майор использует свое служебное положение, чтобы оправдать себя… Сам того не желая, он запускает целую череду смертей, остановить которую решится слишком поздно.

Выпущено: Россия
Студия: «Bazelevs Distribution», ТПО «Рок»
Продолжительность: 01:39:21
Перевод: Не требуется

Файл
Кодек: x264
Качество: BDRip (источник: Blu-ray Disc)
Видео: 1920×804 (2,40:1), 24.000 fps (True24p), 7670 kbps
Аудио #1: AC-3, 6 ch, 640 kbps (Rus)
Субтитры: Английские

Скриншоты

MIОбщее
Уникальный идентификатор : 232703835093533653819381218113258646260 (0xAF1120E0012BE7E6B9D789394EC5EAF4)
Полное имя : F:Major.2013.BDRip.1080p.Rus.mkv
Формат : Matroska
Версия формата : Version 2
Размер файла : 5,77 Гбайт
Продолжительность : 1 ч. 39 м.
Общий поток : 8309 Кбит/сек
Название фильма : Майор (2013)
Дата кодирования : UTC 2013-12-06 13:35:04
Программа кодирования : mkvmerge v5.8.0 ('No Sleep / Pillow') built on Sep 2 2012 15:37:04
Библиотека кодирования : libebml v1.2.3 + libmatroska v1.3.0
Attachment : Yes

Видео
Идентификатор : 1
Формат : AVC
Формат/Информация : Advanced Video Codec
Профиль формата : High@L4.1
Параметр CABAC формата : Да
Параметр ReFrames формата : 5 кадров
Идентификатор кодека : V_MPEG4/ISO/AVC
Продолжительность : 1 ч. 39 м.
Битрейт : 7670 Кбит/сек
Ширина : 1920 пикселей
Высота : 804 пикселя
Соотношение сторон : 2,40:1
Режим частоты кадров : Постоянный
Частота кадров : 24,000 кадра/сек
Цветовое пространство : YUV
Субдискретизация насыщенности : 4:2:0
Битовая глубина : 8 бит
Тип развёртки : Прогрессивная
Бит/(Пиксели*Кадры) : 0.207
Размер потока : 5,21 Гбайт (90%)
Заголовок : Release by N1NT3NDO
Библиотека кодирования : x264 core 140 r2377 1ca7bb9
Настройки программы : cabac=1 / ref=5 / deblock=1:-3:-3 / analyse=0x3:0x133 / me=umh / subme=11 / psy=1 / psy_rd=1.00:0.00 / mixed_ref=1 / me_range=32 / chroma_me=1 / trellis=2 / 8x8dct=1 / cqm=0 / deadzone=21,11 / fast_pskip=0 / chroma_qp_offset=-2 / threads=12 / lookahead_threads=1 / sliced_threads=0 / nr=0 / decimate=0 / interlaced=0 / bluray_compat=0 / constrained_intra=0 / bframes=6 / b_pyramid=2 / b_adapt=2 / b_bias=0 / direct=3 / weightb=1 / open_gop=0 / weightp=2 / keyint=240 / keyint_min=24 / scenecut=40 / intra_refresh=0 / rc=2pass / mbtree=0 / bitrate=7670 / ratetol=1.0 / qcomp=0.60 / qpmin=0 / qpmax=69 / qpstep=4 / cplxblur=20.0 / qblur=0.5 / ip_ratio=1.40 / pb_ratio=1.30 / aq=1:1.00
Язык : Russian
Default : Да
Forced : Нет

Аудио
Идентификатор : 2
Формат : AC-3
Формат/Информация : Audio Coding 3
Расширение режима : CM (complete main)
Параметр Endianness формата : Big
Идентификатор кодека : A_AC3
Продолжительность : 1 ч. 39 м.
Вид битрейта : Постоянный
Битрейт : 640 Кбит/сек
Каналы : 6 каналов
Расположение каналов : Front: L C R, Side: L R, LFE
Частота : 48,0 КГц
Битовая глубина : 16 бит
Метод сжатия : С потерями
Размер потока : 455 Мбайт (8%)
Заголовок : Rus
Язык : Russian
Default : Да
Forced : Нет

Текст
Идентификатор : 3
Формат : UTF-8
Идентификатор кодека : S_TEXT/UTF8
Идентификатор кодека/Информация : UTF-8 Plain Text
Заголовок : Eng
Язык : English
Default : Нет
Forced : Нет

Меню
00:00:00.000 : :Chapter 01
00:00:41.000 : :Chapter 02
00:08:35.583 : :Chapter 03
00:23:31.875 : :Chapter 04
00:29:56.750 : :Chapter 05
00:44:46.083 : :Chapter 06
01:02:40.875 : :Chapter 07
01:12:17.666 : :Chapter 08
01:17:41.958 : :Chapter 09
x264x264 [info]: frame I:765 Avg QP:14.21 size:120008
x264 [info]: frame P:36509 Avg QP:16.68 size: 59893
x264 [info]: frame B:105795 Avg QP:18.46 size: 32460
x264 [info]: consecutive B-frames: 4.9% 5.8% 10.4% 16.7% 14.4% 39.8% 8.1%

x

Не пропустите

Metal Gear Solid V: The Phantom Pain [v 1.0.7.1] (2015) PC | RePack от =nemos=

СКАЧАТЬ TORRENT ФАЙЛ Год выпуска: 2015 Жанр: Action (Shooter), 3D, 3rd Person, Stealth Разработчик: Kojima ...