Главная » Видео » Наши фильмы » Кузнец моего счастья (2016) HDTVRip от GeneralFilm

Кузнец моего счастья (2016) HDTVRip от GeneralFilm

СКАЧАТЬ TORRENT ФАЙЛ

Информация о фильме
Оригинальное название: Кузнец моего счастья
Год выпуска: 2016
Жанр: Мелодрама
Режиссер: Владимир Петров
В ролях: Анна Тараторкина, Илья Ермолов, Галина Чернобаева, Оксана Лесная, Сергей Власов (IV), Руслан Чернецкий, Антон Жуков, Александр Зеленко, Тамара Миронова, Зоя Антонова, Дарья Пармененкова, Андрей Олиференко, Алиса Петрова, Олег Ткачёв

О фильме:
Валентина – талантливый хирург, у нее «золотые руки». Она проводит самые сложные операции, и всегда успешно. Валентина не оставляет больного до полного выздоровления, ведь ее главное правило в жизни – довести любое дело до конца. Антон – полная противоположность Валентины. Сын состоятельных родителей, он легко относится к жизни, в свои 30 лет так и не определился в профессии, и любое начатое дело бросает на полпути… Казалось бы, пути Валентины и Антона никогда не пересекутся… Однако, по воле случая,они встречаются. Валентина на машине сбивает Антона, тот ударяется готовой и теряет память. Он не помнит даже своего имени. Документов у Антона при себе нет, и все принимают его за обычного бомжа. Врач уверен, что амнезия кратковременная. Чтобы ускорить выздоровление, он рекомендует больному свежий воздух и умеренные физические нагрузки. Валентина везет Антона к себе на дачу, она считает, что обязана ему помочь. Валентина принимает решение вернуть Антона к нормальной жизни. Антон – как чистый лист, и шаг за шагом Валентина наполняет его жизнь новым смыслом. Постепенно Антон и Валентина сближаются, их отношения стремительно развиваются… Но приближается тот момент, когда Антон все вспомнит… Вернется ли их жизнь в прежнее русло? Или Валентина и Антон поймут — то, что возникло между ними, и есть настоящая любовь?

Страна: Россия
Студия: ООО «Тесей Продакшн», Производство «Мега Продакшн»
Продолжительность: 01:33:17
Перевод: Не требуется

Файл
Формат: avi
Качество: HDTVRip
Видео: XviD build 73, 672×368 (16:9), 25.000 fps, 979 Kbps (0.158 bit/pixel)
Звук: 48.0 kHz, MP3, 2/0 ch, 128 kbps
Субтитры: нет

МедиаИнфоGeneral
Complete name : Kuznec.Moego.Schastja.2016.XviD.HDTVRip.GeneralFilm.avi
Format : AVI
Format/Info : Audio Video Interleave
File size : 745 MiB
Duration : 1h 33mn
Overall bit rate : 1 117 Kbps
Writing application : VirtualDubMod 1.5.10.3 | www.virtualdub-fr.org || (build 2550/release)
Writing library : VirtualDubMod build 2550/release

Video
ID : 0
Format : MPEG-4 Visual
Format profile : Advanced Simple@L5
Format settings, BVOP : 1
Format settings, QPel : No
Format settings, GMC : No warppoints
Format settings, Matrix : Custom
Codec ID : XVID
Codec ID/Hint : XviD
Duration : 1h 33mn
Bit rate : 979 Kbps
Width : 672 pixels
Height : 368 pixels
Display aspect ratio : 1.85:1
Frame rate : 25.000 fps
Color space : YUV
Chroma subsampling : 4:2:0
Bit depth : 8 bits
Scan type : Progressive
Compression mode : Lossy
Bits/(Pixel*Frame) : 0.158
Stream size : 653 MiB (88%)
Writing library : XviD 73

Audio
ID : 1
Format : MPEG Audio
Format version : Version 1
Format profile : Layer 3
Codec ID : 55
Codec ID/Hint : MP3
Duration : 1h 33mn
Bit rate mode : Constant
Bit rate : 128 Kbps
Channel(s) : 2 channels
Sampling rate : 48.0 KHz
Compression mode : Lossy
Stream size : 85.4 MiB (11%)
Alignment : Aligned on interleaves
Interleave, duration : 40 ms (1.00 video frame)
Interleave, preload duratio : 504 ms
Writing library : LAME3.99r
Encoding settings : -m s -V 4 -q 0 -lowpass 17 -b 128Семплhttp://sendfile.su/1297457Скриншоты



x

Не пропустите

Герника / Gernika (2016) BDRip 720p от New-Team | Лицензия

СКАЧАТЬ TORRENT ФАЙЛ Информация о фильме Название: Герника Оригинальное название: Gernika Страна: Испания Студия: Anima ...