Главная » Видео » Наши фильмы » Купи меня (2018) HDTV 1080i

Купи меня (2018) HDTV 1080i

СКАЧАТЬ TORRENT ФАЙЛ

Купи меня

Страна: Россия

Производство: Кинотрест
Год выпуска: 2018
Жанр: драма, мелодрама
Продолжительность: 01:42:33

Режиссер: Вадим Перельман
Автор сценария: Дарья Грацевич

В ролях: Анна Адамович, Юлия Хлынина, Светлана Устинова, Александр Цёма, Евгения Крюкова, Иван Добронравов, Анатолий Кот, Микаэль Джанибекян

Описание: Три девушки — три истории о том, как изменить свою жизнь и чем предстоит пожертвовать, чтобы стать «счастливыми». Порше, олигархи, секс, любовь и мечты о красивой жизни. Смогут ли героини добиться успеха, или они сломаются, так и не дойдя до цели..?

Перевод: не требуется (оригинал)
Субтитры: нет

Качество: HDTV 1080i
Формат: MPEG-TS
Видео кодек: AVC
Аудио кодек: АС3
Видео: 1920×1080 (16:9), 25.000 fps, MPEG-TS AVC ~5 765 kbps avg
Аудио: 48.0 kHz, AC3 Dolby Digital, 3/2 (L,C,R,l,r) + LFE ch, ~448 kbps

Дата премьеры (РФ): 1 марта 2018, «Централ Партнершип»

Media Info
Идентификатор : 1 (0x1)
Полное имя : Kupi menya_Vadim Perel'man_2017.ts
Формат : MPEG-TS
Размер файла : 4,69 Гбайт
Продолжительность : 1 ч. 42 м.
Режим общего битрейта : Переменный
Общий поток : 6541 Кбит/сек

Видео
Идентификатор : 321 (0x141)
Идентификатор меню : 1 (0x1)
Формат : AVC
Формат/Информация : Advanced Video Codec
Профиль формата : High@L4.0
Параметр CABAC формата : Да
Параметр ReFrames формата : 4 кадра
Идентификатор кодека : 27
Продолжительность : 1 ч. 42 м.
Битрейт : 5765 Кбит/сек
Ширина : 1920 пикселей
Высота : 1080 пикселей
Соотношение сторон : 16:9
Частота кадров : 25,000 кадров/сек
Стандарт вещания : Component
Цветовое пространство : YUV
Субдискретизация насыщенности : 4:2:0
Битовая глубина : 8 бит
Тип развёртки : Чересстрочная
Порядок развёртки : Верхнее поле первое
Бит/(Пиксели*Кадры) : 0.111
Размер потока : 4,13 Гбайт (88%)
Основные цвета : BT.709
Характеристики трансфера : BT.709
Коэффициенты матрицы : BT.709
colour_range : Limited

Аудио
Идентификатор : 421 (0x1A5)
Идентификатор меню : 1 (0x1)
Формат : AC-3
Формат/Информация : Audio Coding 3
Расширение режима : CM (complete main)
Параметр Endianness формата : Big
Идентификатор кодека : 6
Продолжительность : 1 ч. 42 м.
Вид битрейта : Постоянный
Битрейт : 448 Кбит/сек
Каналы : 6 каналов
Расположение каналов : Front: L C R, Side: L R, LFE
Частота : 48,0 КГц
Битовая глубина : 16 бит
Метод сжатия : С потерями
Размер потока : 329 Мбайт (7%)
Язык : RussianСкриншоты

x

Не пропустите

Отель «Артемида» / Hotel Artemis (2018) BDRip-AVC от HELLYWOOD | iTunes

СКАЧАТЬ TORRENT ФАЙЛ Год выпуска: 2018 Производство: Великобритания, США / Marc Platt Productions, Point of ...