Главная » Видео » Наши фильмы » Инсайт / Слепая любовь (2015) HDTVRip-AVC от MediaClub

Инсайт / Слепая любовь (2015) HDTVRip-AVC от MediaClub

СКАЧАТЬ TORRENT ФАЙЛ

Информация о фильме
Название: Инсайт (Слепая любовь)
Год выхода: 2015
Жанр: Драма, мелодрама
Режиссер: Александр Котт
В ролях: Александр Яценко, Агриппина Стеклова, Андрей Бильжо, Филипп Авдеев, Михаил Черкасов, Дмитрий Муляр

О фильме:
Павел Зуев теряет зрение и вынужден начать свою жизнь с нуля. Все связи с его прежней жизнью разорваны, зато в новой он встречает незаурядную женщину, способную видеть больше, чем другие люди. Ее зовут символично: Надежда, и она работает в местной больнице. Надежда поможет Зуеву найти силы и новое чувство реальности. Два этих человека с одинаково сильными характерами переживут, возможно, лучшие дни своей жизни.


Страна: Россия
Студия: Пан-Атлантик Студио
Продолжительность: 01:28:38
Перевод: Не требуется

Файл
Кодек: h.264
Качество: HDTVRip-AVC
Видео: MPEG-4 AVC, 1683 Кбит/с, 1024×440, 25.000 кадр/с
Звук: Русский (AC3, 6 ch, 448 Кбит/с)
Субтитры: Нет

Семпл

О релизе Автор релиза — Silverok, первоисточник — Наш Кинороман HD
MIGeneral
Unique ID : 185967418311260990261501490730328430593 (0x8BE8059F35CE0059924328ADFB149801)
Complete name : D:uTorrentInsait.2015.HDTVRip.AVC.MediaClub.mkv
Format : Matroska
Format version : Version 4 / Version 2
File size : 1.32 GiB
Duration : 1 h 28 min
Overall bit rate : 2 131 kb/s
Encoded date : UTC 2017-01-08 20:29:22
Writing application : mkvmerge v9.7.1 ('Pandemonium') 64bit
Writing library : libebml v1.3.4 + libmatroska v1.4.5

Video
ID : 1
Format : AVC
Format/Info : Advanced Video Codec
Format profile : High@L4.1
Format settings, CABAC : Yes
Format settings, ReFrames : 16 frames
Codec ID : V_MPEG4/ISO/AVC
Duration : 1 h 28 min
Bit rate : 1 683 kb/s
Width : 1 024 pixels
Height : 440 pixels
Display aspect ratio : 2.35:1
Frame rate mode : Constant
Frame rate : 25.000 FPS
Color space : YUV
Chroma subsampling : 4:2:0
Bit depth : 8 bits
Scan type : Progressive
Bits/(Pixel*Frame) : 0.149
Stream size : 1.04 GiB (79%)
Title : HDTVRip by Silverok
Writing library : x264 core 148 r2638 7599210
Encoding settings : cabac=1 / ref=16 / deblock=1:-3:-3 / analyse=0x3:0x113 / me=umh / subme=10 / psy=1 / psy_rd=1.00:0.10 / mixed_ref=1 / me_range=32 / chroma_me=1 / trellis=2 / 8x8dct=1 / cqm=0 / deadzone=21,11 / fast_pskip=0 / chroma_qp_offset=-3 / threads=12 / lookahead_threads=3 / sliced_threads=0 / nr=0 / decimate=0 / interlaced=0 / bluray_compat=0 / constrained_intra=0 / bframes=16 / b_pyramid=2 / b_adapt=2 / b_bias=0 / direct=3 / weightb=1 / open_gop=0 / weightp=2 / keyint=250 / keyint_min=25 / scenecut=40 / intra_refresh=0 / rc_lookahead=40 / rc=2pass / mbtree=0 / bitrate=1683 / ratetol=1.0 / qcomp=0.60 / qpmin=0 / qpmax=69 / qpstep=4 / cplxblur=20.0 / qblur=0.5 / vbv_maxrate=62500 / vbv_bufsize=78125 / nal_hrd=none / filler=0 / ip_ratio=1.40 / pb_ratio=1.30 / aq=1:1.00
Default : Yes
Forced : No

Audio
ID : 2
Format : AC-3
Format/Info : Audio Coding 3
Mode extension : CM (complete main)
Format settings, Endianness : Big
Codec ID : A_AC3
Duration : 1 h 28 min
Bit rate mode : Constant
Bit rate : 448 kb/s
Channel(s) : 6 channels
Channel positions : Front: L C R, Side: L R, LFE
Sampling rate : 48.0 kHz
Frame rate : 31.250 FPS (1536 spf)
Compression mode : Lossy
Stream size : 284 MiB (21%)
Language : Russian
Default : Yes
Forced : No
Скриншоты

x

Не пропустите

Форс-Мажоры / Suits [06х01-14 из 16] (2016) WEB-DL 720p | NewStudio

СКАЧАТЬ TORRENT ФАЙЛ ✦ Форс-Мажоры ✦ Информация о фильме: ✦ Год выхода: 2016 ✦ Жанр: ...