Главная » Видео » Наши фильмы » Инсайт (Слепая любовь) (2015) HDTV 1080i от MediaClub

Инсайт (Слепая любовь) (2015) HDTV 1080i от MediaClub

СКАЧАТЬ TORRENT ФАЙЛ

Информация о фильме
Название: Инсайт (Слепая любовь)
Год выхода: 2015
Жанр: Драма, мелодрама
Режиссер: Александр Котт
В ролях: Александр Яценко, Агриппина Стеклова, Андрей Бильжо, Филипп Авдеев, Михаил Черкасов, Дмитрий Муляр

О фильме:
Павел Зуев теряет зрение и вынужден начать свою жизнь с нуля. Все связи с его прежней жизнью разорваны, зато в новой он встречает незаурядную женщину, способную видеть больше, чем другие люди. Ее зовут символично: Надежда, и она работает в местной больнице. Надежда поможет Зуеву найти силы и новое чувство реальности. Два этих человека с одинаково сильными характерами переживут, возможно, лучшие дни своей жизни.


Страна: Россия
Студия: Пан-Атлантик Студио
Продолжительность: 01:28:38
Перевод: Не требуется

Файл
Кодек: h.264
Качество: HDTV 1080i
Видео: MPEG-TS AVC, ~ 5926 Кбит/с, 1920×1080, 25.000 кадр/с
Звук: Русский (AC3, 6 ch, 448 Кбит/с)
Субтитры: Нет

Семпл

О релизе Автор релиза — Silverok, первоисточник — Наш Кинороман HD
MIGeneral
ID : 1 (0x1)
Complete name : D:uTorrentInsait.2015.HDTV.1080i.MediaClub.ts
Format : MPEG-TS
File size : 4.15 GiB
Duration : 1 h 28 min
Overall bit rate mode : Variable
Overall bit rate : 6 710 kb/s
Maximum Overall bit rate : 35.5 Mb/s

Video
ID : 4113 (0x1011)
Menu ID : 1 (0x1)
Format : AVC
Format/Info : Advanced Video Codec
Format profile : Main@L4
Format settings, CABAC : Yes
Format settings, ReFrames : 4 frames
Codec ID : 27
Duration : 1 h 28 min
Bit rate mode : Variable
Bit rate : 5 926 kb/s
Maximum bit rate : 40.0 Mb/s
Width : 1 920 pixels
Height : 1 080 pixels
Display aspect ratio : 16:9
Frame rate : 25.000 FPS
Color space : YUV
Chroma subsampling : 4:2:0
Bit depth : 8 bits
Scan type : Interlaced
Scan type, store method : Separated fields
Scan order : Top Field First
Bits/(Pixel*Frame) : 0.114
Stream size : 3.67 GiB (88%)
Color range : Limited
Color primaries : BT.709
Transfer characteristics : BT.709
Matrix coefficients : BT.709

Audio
ID : 4352 (0x1100)
Menu ID : 1 (0x1)
Format : AC-3
Format/Info : Audio Coding 3
Mode extension : CM (complete main)
Format settings, Endianness : Big
Codec ID : 129
Duration : 1 h 28 min
Bit rate mode : Constant
Bit rate : 448 kb/s
Channel(s) : 6 channels
Channel positions : Front: L C R, Side: L R, LFE
Sampling rate : 48.0 kHz
Frame rate : 31.250 FPS (1536 spf)
Compression mode : Lossy
Delay relative to video : 40 ms
Stream size : 284 MiB (7%)
Language : Russian
Скриншоты

x

Не пропустите

Бюро легенд / Le Bureau des Légendes [S02] (2016) HDTV 1080i от GeneralFilm | Первый канал

СКАЧАТЬ TORRENT ФАЙЛ Название: Бюро легенд Оригинальное название: Le Bureau des Légendes Год выпуска: 2016 ...