Гоголь. Начало (2017) WEB-DL 1080p | Скачать Торрент
Главная » Видео » Наши фильмы » Гоголь. Начало (2017) WEB-DL 1080p

Гоголь. Начало (2017) WEB-DL 1080p

СКАЧАТЬ TORRENT ФАЙЛ

Информация о фильме
Название: Гоголь. Начало
Год выхода: 2017
Жанр: Приключения, триллер, детектив
Режиссер: Егор Баранов
В ролях: Александр Петров, Олег Меньшиков, Евгений Сытый, Таисия Вилкова, Артём Ткаченко, Юлия Франц, Евгений Стычкин, Ян Цапник, Сергей Бадюк, Марта Тимофеева

О фильме:
Казаки, ведьмы, русалки, утопленницы и другие обитатели Диканьки встречаются лицом к лицу со своим создателем Николаем Гоголем, молодым писарем из Петербурга, который страдает загадочными припадками и может общаться с персонажами из потустороннего мира. Вместе со своим начальником, блестящим столичным следователем Яковым Гуро, начинающий писатель приезжает на Полтавщину расследовать таинственные убийства девушек. Здесь же он встречает свою любовь, которой суждено сыграть роковую роль в его судьбе. Но хватит ли юному литератору духу противостоять невообразимому? Ведь по слухам, которые активно разносят напуганные местные жители, за преступлениями стоит не кто иной, как сам Дьявол в обличии черного всадника.

Страна: Россия
Студия: Vice Films
Продолжительность: 01:46:42
Перевод: Не требуется

Файл
Кодек: h.264
Качество: WEB-DL 1080p
Видео: 1920×806 at 24.000 fps (True24p), MPEG-4 AVC, ~4538 kbps avg
Звук: Русский (AC3, 6 ch, 384 Кбит/с)
Субтитры: Нет

Семпл

MIGeneral
Unique ID : 177046902884124173416086375905324805005 (0x8531FE4136423C63A5D1E3B9B2A9AB8D)
Complete name : D:uTorrentGogol.Nachalo.2017.1080p.WEB-DL.Rus.EliteHD.mkv
Format : Matroska
Format version : Version 2
File size : 3.67 GiB
Duration : 1 h 46 min
Overall bit rate : 4 924 kb/s
Movie name : Gogol. Nachalo (2017) — Release for EliteHD
Encoded date : UTC 2017-09-30 18:08:08
Writing application : mkvmerge v3.4.0 ('Rapunzel') built on May 15 2010 09:38:20
Writing library : libebml v0.8.0 + libmatroska v0.9.0

Video
ID : 1
Format : AVC
Format/Info : Advanced Video Codec
Format profile : High@L4
Format settings, CABAC : Yes
Format settings, ReFrames : 5 frames
Codec ID : V_MPEG4/ISO/AVC
Duration : 1 h 46 min
Bit rate : 4 442 kb/s
Width : 1 920 pixels
Height : 806 pixels
Display aspect ratio : 2.40:1
Frame rate mode : Constant
Frame rate : 24.000 FPS
Color space : YUV
Chroma subsampling : 4:2:0
Bit depth : 8 bits
Scan type : Progressive
Bits/(Pixel*Frame) : 0.120
Stream size : 3.31 GiB (90%)
Title : Gogol. Nachalo (2017) — Release for EliteHD
Language : Russian
Default : Yes
Forced : No
Color range : Limited
Color primaries : BT.709
Transfer characteristics : BT.709
Matrix coefficients : BT.709

Audio
ID : 2
Format : AC-3
Format/Info : Audio Coding 3
Format settings, Endianness : Big
Codec ID : A_AC3
Duration : 1 h 46 min
Bit rate mode : Constant
Bit rate : 384 kb/s
Channel(s) : 6 channels
Channel positions : Front: L C R, Side: L R, LFE
Sampling rate : 48.0 kHz
Frame rate : 31.250 FPS (1536 spf)
Bit depth : 16 bits
Compression mode : Lossy
Stream size : 293 MiB (8%)
Title : AC3 5.1 @ 384 kbps
Language : Russian
Service kind : Complete Main
Default : Yes
Forced : No

Menu
00:00:00.000 : en:1
00:05:51.958 : en:2
00:10:17.083 : en:3
00:15:44.041 : en:4
00:22:17.791 : en:5
00:27:06.791 : en:6
00:33:22.416 : en:7
00:40:16.791 : en:8
00:46:53.207 : en:9
00:54:39.290 : en:10
01:00:58.581 : en:11
01:07:46.164 : en:12
01:13:40.289 : en:13
01:20:47.830 : en:14
01:26:59.955 : en:15
01:32:11.121 : en:16
01:38:34.496 : en:17
Скриншоты

x

Не пропустите

Повелитель / Overlord III [03×01-06 из 13] (2018) HDTVRip 720p от Anilibria | L

СКАЧАТЬ TORRENT ФАЙЛ Информация о фильме Название: Повелитель Оригинальное название: Overlord III Страна: Япония Год ...