Главная » Видео » Мультфильмы » Тима и Тома [01-41] (2015-2016) WEB-DLRip от ExKinoRay

Тима и Тома [01-41] (2015-2016) WEB-DLRip от ExKinoRay

СКАЧАТЬ TORRENT ФАЙЛ

Информация о фильме
Название: Тима и Тома
Год выпуска: 2015-2016
Страна: Россия, Студия анимации «Петербург»
Жанр: Мультсериал, рисованный, детский, комедия, приключения
Продолжительность: 41 х ~ 00:04:59
Язык: русский

Режиссёры: Андрей Бахурин, Джангир Сулейманов, Олег Мусин, …

Роли озвучивали: Александра Борисова, Сергей Голубцов, Мария Бахурина, Иван Чапкевич, Соня Татаринова, Марианна Мокшина, Екатерина Астафьева

Описание: Истории из жизни двух друзей — бегемотика Тимы и слонёнка Томы — обаятельных и трогательных малышей, познающих окружающий их мир, в котором возможно всё: встретить пришельца из космоса, найти таинственную пещеру, прямо на глазах вырастить дерево и, играя, превратиться в силача. Представить себя в любой роли и ситуации — для Тимы и Томы нет ничего невозможного, как нет предела и детской фантазии.

Список серий
01. Не спится
02. Кошелек
03. Посуда
04. Силачи
05. Кто смелый?
06. Девчонок не берем!
07. День Рождения
08. Барабан
09. Большая Уборка
10. Грибной дождик
11. Конкурс рисунков
12. Новогоднее чудо
13. Этикет
14. Пришелец
15. Птичка
16. Снежная история
17. Хрум-хрум
18. Сливы
19. Ночной воришка
20. Плохая примета
21. Клад
22. Кривые цветы
23. Микробы атакуют
24. Поход
25. Кто сильнее?
26. Все наоборот
27. Прятки
28. Пейзаж
29. И так сойдет
30. Ветрянка из банки
31. Принцесса
32. Поручение
33. Укротители
34. Чудо песенка
35. Артистка
36. Раскопки
37. Карета
38. Мешок слона
39. Дочки-матери
40. Остров
41. В гости

Доп. информация:

Семпл

Файл
Формат: AVI
Качество: WEB-DLRip
Видео: 720×400 (1.80:1), 25 fps, XviD build 50 ~1201 kbps avg, 0.17 bit/pixel
Аудио: 48 kHz, AC3 Dolby Digital, 2/0 (L,R) ch, ~192.00 kbps avg

MI
25. Кто сильнее_. XviD-merci-.avi
Format : AVI
Format/Info : Audio Video Interleave
File size : 50.2 MiB
Duration : 4 min 59 s
Overall bit rate : 1 404 kb/s
Writing application : VirtualDubMod 1.5.10.3 | www.virtualdub-fr.org || (build 2550/release)
Writing library : VirtualDubMod build 2550/release

Video
ID : 0
Format : MPEG-4 Visual
Format profile : Advanced Simple@L5
Format settings, BVOP : 1
Format settings, QPel : No
Format settings, GMC : No warppoints
Format settings, Matrix : Default (MPEG)
Codec ID : XVID
Codec ID/Hint : XviD
Duration : 4 min 59 s
Bit rate : 1 202 kb/s
Width : 720 pixels
Height : 400 pixels
Display aspect ratio : 16:9
Frame rate : 25.000 FPS
Color space : YUV
Chroma subsampling : 4:2:0
Bit depth : 8 bits
Scan type : Progressive
Compression mode : Lossy
Bits/(Pixel*Frame) : 0.167
Stream size : 42.9 MiB (86%)
Writing library : XviD 1.2.1 (UTC 2008-12-04)

Audio
ID : 1
Format : AC-3
Format/Info : Audio Coding 3
Mode extension : CM (complete main)
Format settings, Endianness : Big
Codec ID : 2000
Duration : 4 min 59 s
Bit rate mode : Constant
Bit rate : 192 kb/s
Channel(s) : 2 channels
Channel positions : Front: L R
Sampling rate : 48.0 kHz
Frame rate : 31.250 FPS (1536 spf)
Bit depth : 16 bits
Compression mode : Lossy
Stream size : 6.86 MiB (14%)
Alignment : Split accross interleaves
Interleave, duration : 40 ms (1.00 video frame)
Interleave, preload duratio : 500 ms
Скриншоты

Добавил эпизоды:
+ 40-41 — 11.01.2017

Автор релиза:

/

x

Не пропустите

Синий экзорцист: Нечестивый король Киото / Ao no Exorcist: Kyoto Fujouou-hen [02х01-07 из 12] (2017) WEBRip 720p | SHIZA Project7

СКАЧАТЬ TORRENT ФАЙЛ Информация о фильме Название: Синий экзорцист: Нечестивый король Киото Оригинальное название: Ao ...