Главная » Видео » Мультфильмы » Тима и Тома [01-41] (2015-2016) WEB-DLRip 1080p от ExKinoRay

Тима и Тома [01-41] (2015-2016) WEB-DLRip 1080p от ExKinoRay

СКАЧАТЬ TORRENT ФАЙЛ

Информация о фильме
Название: Тима и Тома
Год выпуска: 2015-2016
Страна: Россия, Студия анимации «Петербург»
Жанр: Мультсериал, рисованный, детский, комедия, приключения
Продолжительность: 41 х ~ 00:04:59
Язык: русский

Режиссёры: Андрей Бахурин, Джангир Сулейманов, Олег Мусин, …

Роли озвучивали: Александра Борисова, Сергей Голубцов, Мария Бахурина, Иван Чапкевич, Соня Татаринова, Марианна Мокшина, Екатерина Астафьева

Описание: Истории из жизни двух друзей — бегемотика Тимы и слонёнка Томы — обаятельных и трогательных малышей, познающих окружающий их мир, в котором возможно всё: встретить пришельца из космоса, найти таинственную пещеру, прямо на глазах вырастить дерево и, играя, превратиться в силача. Представить себя в любой роли и ситуации — для Тимы и Томы нет ничего невозможного, как нет предела и детской фантазии.

Список серий
01. Не спится
02. Кошелек
03. Посуда
04. Силачи
05. Кто смелый?
06. Девчонок не берем!
07. День Рождения
08. Барабан
09. Большая Уборка
10. Грибной дождик
11. Конкурс рисунков
12. Новогоднее чудо
13. Этикет
14. Пришелец
15. Птичка
16. Снежная история
17. Хрум-хрум
18. Сливы
19. Ночной воришка
20. Плохая примета
21. Клад
22. Кривые цветы
23. Микробы атакуют
24. Поход
25. Кто сильнее?
26. Все наоборот
27. Прятки
28. Пейзаж
29. И так сойдет
30. Ветрянка из банки
31. Принцесса
32. Поручение
33. Укротители
34. Чудо песенка
35. Артистка
36. Раскопки
37. Карета
38. Мешок слона
39. Дочки-матери
40. Остров
41. В гости

Доп. информация:

Семпл

Файл
Формат: MP4
Качество: WEB-DLRip 1080p
Видео: MPEG4-AVC, 1920×1080 (16:9), 25 fps, ~ 1 962 kbps, 0.038 bit/pixel
Аудио: 44,1 kHz, AАC-LC, 2.0, ~126 kbps

MI
16. Снежная история. Full-HD-merci-.mp4
Format : MPEG-4
Format profile : Base Media
Codec ID : isom (isom/mp42)
File size : 74.7 MiB
Duration : 4 min 59 s
Overall bit rate mode : Variable
Overall bit rate : 2 093 kb/s
Encoded date : UTC 2016-03-23 10:19:35
Tagged date : UTC 2016-03-23 10:19:35
gsst : 0
gstd : 310056

Video
ID : 1
Format : AVC
Format/Info : Advanced Video Codec
Format profile : High@L4
Format settings, CABAC : Yes
Format settings, ReFrames : 3 frames
Codec ID : avc1
Codec ID/Info : Advanced Video Coding
Duration : 4 min 59 s
Source duration : 4 min 59 s
Bit rate : 1 962 kb/s
Width : 1 920 pixels
Height : 1 080 pixels
Display aspect ratio : 16:9
Frame rate mode : Constant
Frame rate : 25.000 FPS
Color space : YUV
Chroma subsampling : 4:2:0
Bit depth : 8 bits
Scan type : Progressive
Bits/(Pixel*Frame) : 0.038
Stream size : 70.1 MiB (94%)
Source stream size : 70.1 MiB (94%)
Language : English
Encoded date : UTC 2016-03-23 10:19:35
Tagged date : UTC 2016-03-23 10:19:35
Color range : Limited
Color primaries : BT.709
Transfer characteristics : BT.709
Matrix coefficients : BT.709
mdhd_Duration : 299533

Audio
ID : 2
Format : AAC
Format/Info : Advanced Audio Codec
Format profile : LC
Codec ID : 40
Duration : 4 min 59 s
Source duration : 4 min 59 s
Bit rate mode : Variable
Bit rate : 126 kb/s
Channel(s) : 2 channels
Channel positions : Front: L R
Sampling rate : 44.1 kHz
Frame rate : 43.066 FPS (1024 spf)
Compression mode : Lossy
Stream size : 4.49 MiB (6%)
Source stream size : 4.49 MiB (6%)
Language : English
Encoded date : UTC 2016-03-23 10:19:35
Tagged date : UTC 2016-03-23 10:19:35
mdhd_Duration : 299608
Скриншоты

Добавил эпизоды:
+ 40-41 — 11.01.2017

Автор релиза:

/

x

Не пропустите

Улов / The Catch [02×01-03 из 10] (2017) WEB-DLRip, HDTVRip | IdeaFilm

СКАЧАТЬ TORRENT ФАЙЛ Информация о фильме Название: Улов Оригинальное название: The Catch Год выхода: 2017 ...