Главная » Видео » Мультфильмы » Смешарики. Дежавю (2018) WEB-DL 1080p | iTunes

Смешарики. Дежавю (2018) WEB-DL 1080p | iTunes

СКАЧАТЬ TORRENT ФАЙЛ

Информация о фильме
Оригинальное название: Смешарики. Дежавю
Год выпуска: 2018
Жанр: Мультфильм, комедия, приключения, семейный
Режиссер: Денис Чернов
В ролях: Павел Деревянко, Антон Виноградов, Сергей Мардарь, Михаил Черняк, Владимир Постников, Светлана Письмиченко, Вадим Бочанов, Михаил Хрусталёв

О фильме:
Крош решает устроить незабываемый день рождения Копатыча — он обращается в агентство «Дежавю», которое обещает своим клиентам удивительные путешествия во времени. Но из-за несоблюдения условий договора всех смешариков раскидывает во времени, а Крошу придется собирать друзей по разным эпохам в компании своего второго «Я» — повзрослевшего и ворчливого Шорка, появившегося из-за временного парадокса.

Выпущено: Россия, Группа Компаний «Рики»
Язык: Русский
Продолжительность: 01:25:07
Субтитры: отсутствуют

Формат: MKV
Качество: WEB-DL 1080p
Формат: MKV
Видео: AVC, 1912×796 (2.40:1), 23.976 fps, 4 404 Kbps (0.121 bit/pixel)
Аудио: AC-3, 48.0 KHz, 6 ch, 384 Kbps, CBR (Russian) [iTunes]

M/IОбщее
Уникальный идентификатор : 145502406943785174338983189120486518984 (0x6D76BE87419420BE7C04072EDD68B0C8)
Полное имя : Smeshariki Dezavy 2018 WEB DL 1080p.mkv
Формат : Matroska
Версия формата : Version 4 / Version 2
Размер файла : 2,90 Гбайт
Продолжительность : 1 ч. 25 м.
Общий поток : 4885 Кбит/сек
Дата кодирования : UTC 2018-06-07 01:14:31
Программа кодирования : mkvmerge v23.0.0 ('The Bride Said No') 32-bit
Библиотека кодирования : libebml v1.3.6 + libmatroska v1.4.9

Видео
Идентификатор : 2
Формат : AVC
Формат/Информация : Advanced Video Codec
Профиль формата : High@L4
Параметр CABAC формата : Да
Параметр ReFrames формата : 5 кадров
Идентификатор кодека : V_MPEG4/ISO/AVC
Продолжительность : 1 ч. 25 м.
Битрейт : 4499 Кбит/сек
Ширина : 1912 пикселей
Высота : 796 пикселей
Соотношение сторон : 2,40:1
Режим частоты кадров : Постоянный
Частота кадров : 23,976 кадра/сек
Цветовое пространство : YUV
Субдискретизация насыщенности : 4:2:0
Битовая глубина : 8 бит
Тип развёртки : Прогрессивная
Бит/(Пиксели*Кадры) : 0.123
Размер потока : 2,68 Гбайт (92%)
Язык : English
Default : Да
Forced : Нет
Цветовой диапазон : Limited
Основные цвета : BT.709
Характеристики трансфера : BT.709
Коэффициенты матрицы : BT.709

Аудио
Идентификатор : 1
Формат : AC-3
Формат/Информация : Audio Coding 3
Расширение режима : CM (complete main)
Параметр Endianness формата : Big
Идентификатор кодека : A_AC3
Продолжительность : 1 ч. 25 м.
Вид битрейта : Постоянный
Битрейт : 384 Кбит/сек
Каналы : 6 каналов
Расположение каналов : Front: L C R, Side: L R, LFE
Частота : 48,0 КГц
Частота кадров : 31,250 кадров/сек (1536 spf)
Метод сжатия : С потерями
Задержка видео : -42 мс.
Размер потока : 234 Мбайт (8%)
Язык : Russian
Default : Да
Forced : Нет

Меню
00:00:00.000 : en:1
00:04:23.000 : en:2
00:14:04.000 : en:3
00:30:01.000 : en:4
00:44:52.000 : en:5
00:50:51.000 : en:6
01:02:17.000 : en:7
01:11:52.000 : en:8
01:20:03.000 : en:9Скриншоты

x

Не пропустите

Вайс / VICE [06×01-22 из 29] (2018) HDTVRip 720p | ColdFilm

СКАЧАТЬ TORRENT ФАЙЛ Информация о фильме Название: Вайс Оригинальное название: VICE Год выпуска: 2017 Жанр: ...