Главная » Видео » Мультфильмы » Синий Трактор (2015-2016) WEB-DLRip от ImperiaFilm

Синий Трактор (2015-2016) WEB-DLRip от ImperiaFilm

СКАЧАТЬ TORRENT ФАЙЛ

Информация о фильме
Название: Синий Трактор
Год выхода: 2015-2016
Жанр: Мультфильм, музыка
Режиссер: Синий Трактор
В ролях: Трактор и животные

О фильме:
Развивающие мультики про машинки, песенка про трактор и разных животных, которых он везет в прицепе. В этом видео дети смогут отгадать, кого везет трактор, послушав песенку!

Страна: Россия
Студия: Теремок ТВ
Продолжительность: 01:09:58
Перевод: Не требуется

Файл
Кодек: XviD
Качество: WEB-DLRip
Видео: 720×400 (1.80:1), 25 fps, XviD build 73 ~1144 kbps avg, 0.16 bit/pixel
Звук: 44.100 kHz, MPEG Layer 3, 2 ch, ~128.00 kbps avg
Субтитры: Отсутствуют

Семпл

MIGeneral
Complete name : D:Изготовление рипаTraktor.webdlrip by shkiper.avi
Format : AVI
Format/Info : Audio Video Interleave
File size : 642 MiB
Duration : 1 h 9 min
Overall bit rate : 1 283 kb/s
Writing application : VirtualDubMod 1.5.10.3 | www.virtualdub-fr.org || (build 2550/release)
Writing library : VirtualDubMod build 2550/release

Video
ID : 0
Format : MPEG-4 Visual
Format profile : Advanced Simple@L5
Format settings, BVOP : 1
Format settings, QPel : No
Format settings, GMC : No warppoints
Format settings, Matrix : Custom
Codec ID : XVID
Codec ID/Hint : XviD
Duration : 1 h 9 min
Bit rate : 1 145 kb/s
Width : 720 pixels
Height : 400 pixels
Display aspect ratio : 16:9
Frame rate : 25.000 FPS
Color space : YUV
Chroma subsampling : 4:2:0
Bit depth : 8 bits
Scan type : Progressive
Compression mode : Lossy
Bits/(Pixel*Frame) : 0.159
Stream size : 573 MiB (89%)
Writing library : XviD 73

Audio
ID : 1
Format : MPEG Audio
Format version : Version 1
Format profile : Layer 3
Codec ID : 55
Codec ID/Hint : MP3
Duration : 1 h 9 min
Bit rate mode : Constant
Bit rate : 128 kb/s
Channel(s) : 2 channels
Sampling rate : 44.1 kHz
Compression mode : Lossy
Stream size : 64.1 MiB (10%)
Alignment : Split accross interleaves
Interleave, duration : 40 ms (1.00 video frame)
Interleave, preload duratio : 500 ms
Writing library : LAME3.99r
Encoding settings : -m s -V 4 -q 2 -lowpass 17 -b 128Скриншоты

x

Не пропустите

Критики назвали лучшие российские сериалы года

Сайт Кино-театр.ру по традиции в конце года попросил ведущих российских кино- и телекритиков выбрать лучшие ...