Главная » Видео » Мультфильмы » Симпсоны / The Simpsons [28×01-11 из 22] (2016) WEB-DL 720p | OMSKBIRD

Симпсоны / The Simpsons [28×01-11 из 22] (2016) WEB-DL 720p | OMSKBIRD

СКАЧАТЬ TORRENT ФАЙЛ

Информация о фильме
Название: Симпсоны
Оригинальное название: The Simpsons
Год выхода: 2016
Жанр: Комедия, сатира
Режиссер: Марк Керклэнд, Стивен Дин Мур, Боб Андерсон
В ролях: Дэн Кастелланета, Джули Кавнер, Нэнси Картрайт, Ярдли Смит, Гарри Ширер, Хэнк Азария, Памела Хейден, Тресс МакНилл, Карл Видерготт, Мэгги Росвэлл и др.

О фильме:
«Симпсоны» — это пародия на всех и вся, и на типичный американский уклад жизни в целом. Главные герои этого мультсериала — показательная в своей типичности семья Симпсонов — обжора и лежебока, недалекий Гомер, его жена-умница домохозяйка Мардж, их дети сорванец Барт, одаренная умная девочка Лиза и совсем еще младенец Мэгги. Каждая серия не только богата юмором, но и высмеивает одну из волнующих современного человека тем, так что сериал с успехом пережил более 25 сезонов и продолжает успешное шествие по экранам. Отрезки, шутки, сами герои Симпсонов стали неотъемлемой частью современной поп-культуры, а их имена стали именами нарицательными.

Страна: США
Продолжительность: ~ 00:23:00 серия
Перевод: Любительский (многоголосый закадровый) | OMSKBIRD records

Файл
Кодек: MPEG-4 AVC/H.264
Качество: WEB-DL 720p
Видео: AVC, 1280×718 (16:9), 23.976 fps, ~4000 kbps
Звук:
Аудио rus: AC-3, 48 KHz, 6 ch, 384 kbps | OMSKBIRD records
Аудио eng: AC-3, 48 KHz, 6 ch, 384 kbps
Субтитры: английские
Реклама: присутствуют аудио вставки рекламы

Семпл

Релиз:
Релиз-группа: OmskBird
Роли озвучивали • Ольга Федорова, Павел Ярощик, Станислав Черсков, Артем Мустаев, Алена Соколова
Перевод • Дарья Жмура
Звукорежиссер • Павел Квентов
Список серий:
01. Monty Burns' Fleeing Circus
02. Friends and Family
03. The Town
04. Treehouse of Horror XXVII
05. Trust But Clarify
06. There Will Be Buds
07. Havana Wild Weekend
08. Dad Behavior
09. The Last Traction Hero
10. The Nightmare After Krustmas
11. Pork & Burns

MediaInfo:
General
Unique ID : 244218880530752110675360997341957894191 (0xB7BAD872AE4A3723B0FD5B04C1AEB02F)
Complete name : G:FilmsThe.Simpsons.S28.720p.OmskBirdThe.Simpsons.S28E01.720p.WEB-DL.OmskBird.mkv
Format : Matroska
Format version : Version 4 / Version 2
File size : 781 MiB
Duration : 22mn 49s
Overall bit rate : 4 785 Kbps
Encoded date : UTC 2016-10-04 05:08:48
Writing application : mkvmerge v9.4.2 ('So High') 64bit
Writing library : libebml v1.3.4 + libmatroska v1.4.5

Video
ID : 1
Format : AVC
Format/Info : Advanced Video Codec
Format profile : High@L3.1
Format settings, CABAC : No
Format settings, ReFrames : 2 frames
Codec ID : V_MPEG4/ISO/AVC
Duration : 22mn 49s
Bit rate : 4 015 Kbps
Width : 1 280 pixels
Height : 718 pixels
Display aspect ratio : 16:9
Frame rate mode : Constant
Frame rate : 23.976 (24000/1001) fps
Color space : YUV
Chroma subsampling : 4:2:0
Bit depth : 8 bits
Scan type : Progressive
Bits/(Pixel*Frame) : 0.182
Stream size : 656 MiB (84%)
Language : English
Default : Yes
Forced : No
Color range : Limited
Color primaries : BT.709
Transfer characteristics : BT.709
Matrix coefficients : BT.709

Audio #1
ID : 2
Format : AC-3
Format/Info : Audio Coding 3
Mode extension : CM (complete main)
Format settings, Endianness : Big
Codec ID : A_AC3
Duration : 22mn 49s
Bit rate mode : Constant
Bit rate : 384 Kbps
Channel(s) : 6 channels
Channel positions : Front: L C R, Side: L R, LFE
Sampling rate : 48.0 KHz
Frame rate : 31.250 fps (1536 spf)
Compression mode : Lossy
Stream size : 62.7 MiB (8%)
Title : OmskBird 5.1
Language : Russian
Default : Yes
Forced : No

Audio #2
ID : 3
Format : AC-3
Format/Info : Audio Coding 3
Mode extension : CM (complete main)
Format settings, Endianness : Big
Codec ID : A_AC3
Duration : 22mn 49s
Bit rate mode : Constant
Bit rate : 384 Kbps
Channel(s) : 6 channels
Channel positions : Front: L C R, Side: L R, LFE
Sampling rate : 48.0 KHz
Frame rate : 31.250 fps (1536 spf)
Compression mode : Lossy
Stream size : 62.7 MiB (8%)
Title : eng
Language : English
Default : No
Forced : No

Text
ID : 4
Format : UTF-8
Codec ID : S_TEXT/UTF8
Codec ID/Info : UTF-8 Plain Text
Duration : 22mn 44s
Bit rate : 90 bps
Count of elements : 536
Stream size : 15.0 KiB (0%)
Title : CC
Language : English
Default : No
Forced : No

Скриншоты

x

Не пропустите

Симпсоны / The Simpsons [28×01-13 из 22] (2016) WEB-DLRip | OMSKBIRD records

СКАЧАТЬ TORRENT ФАЙЛ ✧ Симпсоны ✧ Информация о фильме: ✦ Название: Симпсоны ✦ Оригинальное название: ...