Главная » Видео » Мультфильмы » С значит Семья / F is for Family [03×01-02 из 10] (2018) WEBRip 1080p | LakeFilms & WIMovie

С значит Семья / F is for Family [03×01-02 из 10] (2018) WEBRip 1080p | LakeFilms & WIMovie

СКАЧАТЬ TORRENT ФАЙЛ

Название: С значит Семья
Оригинальное название: F is for Family
Год выпуска: 2018
Жанр: Мультсериал, комедия, экранизация
Выпущено: США, Big Jump Productions, Gaumont International Television, Wild West Television
Режиссер: Лоран Николас
В ролях: Билл Бёрр, Лора Дерн, Джастин Лонг, Деби Дерриберри, Сэм Рокуэлл, Хейли Рейнхарт, Мо Коллинз, Тревор Дивэлл, Фил Хендри, Кевин Майкл Ричардсон

О фильме: Фильм-ностальгия по 1970-м, когда все поголовно носили с собой оружие и дымили не только дома, но и в общественных местах. В центре событий — семейка Мёрфи, относящаяся к достаточно бедной прослойке общества. У главы семейства, Фрэнка, масса странностей, от которых страдают его жена Сью и двое сыновей — Кевин и Билл. Их муж и отец из одной крайности бросается в противоположную, так что скучно с ним не бывает.

Техданные
Качество: WEBRip (1080p)
Видео: MPEG-4 AVC, 2453 kb/s, 1920×1080, 23.976 FPS
Аудио: AC3, 2 ch, 256 Кбит/с
Продолжительность: 02 x 00:25:00
Перевод: Любительский многоголосый закадровый (LakeFilms & WI Movie)
Присутствует реклама!

Скриншоты


MIGeneral
Unique ID : 52132260938022782029761670483541716388 (0x27384EE8E067F6431EA3E1F3D87B6DA4)
Complete name : E:F.is.for.Family.S03.1080p.WEBRip.LakeFilmsF.is.for.Family.s03.e01.1080p.WEBRip.LakeFilms.mkv
Format : Matroska
Format version : Version 4 / Version 2
File size : 535 MiB
Duration : 27mn 4s
Overall bit rate : 2 764 Kbps
Writing application : XviD4PSP 7.0.461 DAILY
Writing library : Lavf57.71.100
ENCODING_INFO : MATROSKA,WEBM > MKV / H264 > X264 ABR 2600kbps Very Fast / AAC-LC > AC3 CBR 256kbps

Video
ID : 1
Format : AVC
Format/Info : Advanced Video Codec
Format profile : High@L4.0
Format settings, CABAC : Yes
Format settings, ReFrames : 4 frames
Codec ID : V_MPEG4/ISO/AVC
Duration : 27mn 4s
Bit rate : 2 453 Kbps
Nominal bit rate : 2 600 Kbps
Width : 1 920 pixels
Height : 1 080 pixels
Display aspect ratio : 16:9
Frame rate mode : Constant
Frame rate : 23.976 fps
Color space : YUV
Chroma subsampling : 4:2:0
Bit depth : 8 bits
Scan type : Progressive
Bits/(Pixel*Frame) : 0.049
Stream size : 475 MiB (89%)
Writing library : x264 core 157 r2935M 545de2f
Encoding settings : cabac=1 / ref=1 / deblock=1:-3:-3 / analyse=0x3:0x113 / me=hex / subme=2 / psy=1 / psy_rd=1.00:0.00 / mixed_ref=0 / me_range=16 / chroma_me=1 / trellis=0 / 8x8dct=1 / cqm=0 / deadzone=21,11 / fast_pskip=1 / chroma_qp_offset=0 / threads=5 / lookahead_threads=1 / sliced_threads=0 / nr=0 / decimate=1 / interlaced=0 / bluray_compat=0 / constrained_intra=0 / bframes=3 / b_pyramid=2 / b_adapt=1 / b_bias=0 / direct=1 / weightb=1 / open_gop=0 / weightp=1 / keyint=240 / keyint_min=24 / scenecut=40 / intra_refresh=0 / rc_lookahead=10 / rc=abr / mbtree=1 / bitrate=2600 / ratetol=1.0 / qcomp=0.60 / qpmin=0 / qpmax=69 / qpstep=4 / ip_ratio=1.40 / aq=1:1.00
Default : Yes
Forced : No

Audio
ID : 2
Format : AC-3
Format/Info : Audio Coding 3
Mode extension : CM (complete main)
Format settings, Endianness : Big
Codec ID : A_AC3
Duration : 27mn 4s
Bit rate mode : Constant
Bit rate : 256 Kbps
Channel(s) : 2 channels
Channel positions : Front: L R
Sampling rate : 48.0 KHz
Bit depth : 16 bits
Compression mode : Lossy
Stream size : 49.6 MiB (9%)
Default : Yes
Forced : No

x

Не пропустите

Наоми Уоттс испытает «роковое влечение»

Наоми Уоттс сыграет главную роль в мини-сериале Quibi «Волки и селяне», уверяет Variety. фото: Pascal ...