Главная » Видео » Мультфильмы » Рапунцель: Новая история / Tangled [01×04 из 15] (2017) SATRip-AVC от NewTeam | D

Рапунцель: Новая история / Tangled [01×04 из 15] (2017) SATRip-AVC от NewTeam | D

СКАЧАТЬ TORRENT ФАЙЛ


Мы «В КОНТАКТЕ»

Год выпуска: 2017
Страна: США, 9 Story Entertainment, Walt Disney Television Animation
Жанр: мультсериал, детский, семейный, приключения
Продолжительность: ~ 00:21:36 / серия
Перевод: Профессиональный (дублированный)
Субтитры: нет
Оригинальная аудиодорожка: нет

Режиссёр: Том Колфилд / Tom Caulfield, Крис Сонненбург / Chris Sonnenburg

Озвучивали: Закари Левай, Мэнди Мур, Иден Эспиноза, Клэнси Браун, Джули Боуэн, Джереми Джордан, Джонатан Бэнкс, Донна Мерфи, Шон Хейс, Джефф Росс…

Описание: В центре сюжета — продолжение приключений Рапунцель и ее друзей. Прошло полгода с тех пор, как девушка вернулась домой и вновь обрела своих родителей. Совсем скоро должна состояться ее коронация. Пока все во дворце готовятся к пышному торжеству, Рапунцель нужно усвоить множество жизненных уроков и разобраться с новыми для нее обязанностями Принцессы. Помогать Рапунцель в этом нелёгком деле будут верные друзья: фрейлина Кассандра, возлюбленный Юджин, конь Максимус и хамелеон Паскаль …

Качество видео: SATRip-AVC
Формат видео: MKV

Видео: [email protected] (16:9), 25.000 fps, MPEG-4 AVC ~ 1808 kbps avg, 0.233 bit/pixel
Аудио: 48 kHz, Dolby AC3 2.0 192 kbps const, русский

Дополнительно: Список серий позаимствован из английского Вики: https://en.wikipedia.org/wiki/Tangled:_The_Series#Season_1_.282017.29

Серии
01. Ветер в моих волосах / What the Hair?!, 24 марта 2017
02. Недоброжелатель Рапунцель / Rapunzel's Enemy, 31 марта 2017
03. Уважаемый профессор Фитцерберт / Fitzherbert P.I., 7 апреля 2017
04. Битва Храбрецов / Challenge of the Brave, 14 апреля 2017
05. Cassandra v. Eugene, 21 апреля 2017
06. The Return of Strongbow, 28 апреля 2017
07. In Like Flynn, 23 июля 2017
08. Great Expotations, 30 июля 2017
09. Under Raps, 6 августа 2017
10. One Angry Princess, 13 августа 2017
11. Pascal's Story, 20 августа 2017
12. Big Brothers of Corona, 1 октября 2017
13. The Wrath of Ruthless Ruth, 8 октября 2017
14. Max's Enemy, 15 октября 2017
15. The Way of the Willow, 22 октября 2017

Внимание! Раздача ведётся путём добавления новых серий
Чтобы начать докачку новой серии, пользователям необходимо сделать следующее:
(1) остановить скачивание,
(2) удалить старый торрент у себя из клиента (старые серии удалять не надо),
(3) скачать новый торрент и запустить его у себя в клиенте вместо старого, при этом указать клиенту путь в старую папку куда и должно происходить скачивание новых серий.
Ваш клиент при этом должен произвести хеширование (проверку) старой папки (если не производит сам — помогите ему сделать это), и будет докачивать только те серии которых у вас ещё нет. Старые серии при этом не удаляются, а продолжают раздаваться!
Eсли вы уже удалили старые серии, то предотвратить повторную закачку старых серий можно, отжав галочку в соответсвующих местах при запуске нового торрента. По возможности, желательно не удалять старые серии как можно дольше чтобы релизёр не столько продолжал раздавать старые серии, а смог сконцентрироваться на новых.

MediaInfo
Общее
Формат : Matroska
Версия формата : Version 2
Размер файла : 309 Мбайт
Продолжительность : 21 м.
Общий поток : 2001 Кбит/сек
Дата кодирования : UTC 2017-09-19 09:20:44
Программа кодирования : mkvmerge v6.1.0 ('Old Devil') built on Mar 4 2013 09:10:42
Библиотека кодирования : libebml v1.3.0 + libmatroska v1.4.0

Видео
Идентификатор : 1
Формат : AVC
Формат/Информация : Advanced Video Codec
Профиль формата : High@L4.1
Параметр CABAC формата : Да
Параметр ReFrames формата : 10 кадров
Идентификатор кодека : V_MPEG4/ISO/AVC
Продолжительность : 21 м.
Битрейт : 1808 Кбит/сек
Ширина : 720 пикселей
Высота : 432 пикселя
Соотношение сторон : 1,85:1
Режим частоты кадров : Постоянный
Частота кадров : 25,000 кадров/сек
Цветовое пространство : YUV
Субдискретизация насыщенности : 4:2:0
Битовая глубина : 8 бит
Тип развёртки : Прогрессивная
Бит/(Пиксели*Кадры) : 0.233
Размер потока : 273 Мбайт (88%)
Библиотека кодирования : x264 core 130 r2273 b3065e6
Настройки программы : cabac=1 / ref=10 / deblock=1:-2:-1 / analyse=0x3:0x113 / me=umh / subme=10 / psy=1 / psy_rd=1.00:0.00 / mixed_ref=1 / me_range=32 / chroma_me=1 / trellis=2 / 8x8dct=1 / cqm=0 / deadzone=21,11 / fast_pskip=1 / chroma_qp_offset=-2 / threads=12 / lookahead_threads=2 / sliced_threads=0 / nr=0 / decimate=0 / interlaced=0 / bluray_compat=0 / constrained_intra=0 / bframes=8 / b_pyramid=2 / b_adapt=2 / b_bias=0 / direct=3 / weightb=1 / open_gop=0 / weightp=2 / keyint=250 / keyint_min=25 / scenecut=40 / intra_refresh=0 / rc=2pass / mbtree=0 / bitrate=1808 / ratetol=1.0 / qcomp=0.60 / qpmin=0 / qpmax=69 / qpstep=4 / cplxblur=20.0 / qblur=0.5 / ip_ratio=1.40 / pb_ratio=1.30 / aq=1:1.00
Default : Да
Forced : Нет

Аудио
Идентификатор : 2
Формат : AC-3
Формат/Информация : Audio Coding 3
Расширение режима : CM (complete main)
Параметр Endianness формата : Big
Идентификатор кодека : A_AC3
Продолжительность : 21 м.
Вид битрейта : Постоянный
Битрейт : 192 Кбит/сек
Каналы : 2 канала
Расположение каналов : Front: L R
Частота : 48,0 КГц
Битовая глубина : 16 бит
Метод сжатия : С потерями
Размер потока : 29,7 Мбайт (10%)
Default : Да
Forced : Нет

Скриншоты

Торрент обновлен 13 октября 2017 года года. Добавлены 2-4 серии

x

Не пропустите

SMPlayer 17.10.2 (2017) PC | + Portable

СКАЧАТЬ TORRENT ФАЙЛ Версия программы: 17.10.2 Официальный сайт: ссылка Язык интерфейса: Русский, Английский и другие ...