Главная » Видео » Мультфильмы » Остров собак / Isle of Dogs (2018) BDRemux 1080p от ExKinoRay | iTunes

Остров собак / Isle of Dogs (2018) BDRemux 1080p от ExKinoRay | iTunes

СКАЧАТЬ TORRENT ФАЙЛ

Информация о фильме
Название: Остров собак
Оригинальное название: Isle of Dogs
Год выхода: 2018
Жанр: Мультфильм, фантастика, фэнтези, драма, комедия, приключения, полнометражный
Режиссер: Уэс Андерсон
В ролях: Брайан Крэнстон, Кою Ранкин, Эдвард Нортон, Боб Бэлабан, Билл Мюррей, Джефф Голдблюм, Кунъити Номура, Акира Такаяма, Грета Гервиг, Фрэнсис МакДорманд

О фильме: История 12-летнего мальчика Атари Кобаяши, опекаемого коррумпированным мэром Кобаяши. Когда по Указу последнего все домашние собаки города Мегасаки изгоняются на громадную свалку, Атари в одиночку отправляется на миниатюрном летательном аппарате на мусорный остров, чтобы найти своего верного пса по прозвищу Спотс. Там на острове вместе со стаей новых друзей-дворняг он начнет эпичное путешествие, которое решит будущую судьбу всей Префектуры.

Страна: США, Германия
Студия: American Empirical Pictures, Indian Paintbrush, Studio Babelsberg
Продолжительность: 01:41:09
Перевод: Дублированный | iTunes

Качество: BDRemux 1080p
Видео: MPEG-4 AVC, 1920×1080, 26.8 Mbit/s, 23.976 fps
Звук:
Аудио #01: 48 kHz, AC3, 5.1, 384 Kbps | iTunes | RUS |

Аудио #02: 48 kHz, DTS-HD MA, 5.1, 3448 Kbps | Оригинал | ENG |

Субтитры: Русские (full), английские

MIGeneral
Unique ID : 200436525641961807705126681893386951385 (0x96CAABB0EA969B518EEB9B7B14919AD9)
Complete name : D:Video111Isle.of.Dogs.2018.BDREMUX.1080p.ExKinoRay.mkv
Format : Matroska
Format version : Version 4 / Version 2
File size : 21.6 GiB
Duration : 1 h 41 min
Overall bit rate mode : Variable
Overall bit rate : 30.6 Mb/s
Movie name : Isle of Dogs 2018 from ExKinoRay
Encoded date : UTC 2018-07-10 05:14:02
Writing application : mkvmerge v23.0.0 ('The Bride Said No') 64-bit
Writing library : libebml v1.3.6 + libmatroska v1.4.9

Video
ID : 1
Format : AVC
Format/Info : Advanced Video Codec
Format profile : High@L4.1
Format settings : CABAC / 4 Ref Frames
Format settings, CABAC : Yes
Format settings, ReFrames : 4 frames
Codec ID : V_MPEG4/ISO/AVC
Duration : 1 h 41 min
Bit rate mode : Variable
Bit rate : 26.8 Mb/s
Maximum bit rate : 32.5 Mb/s
Width : 1 920 pixels
Height : 1 080 pixels
Display aspect ratio : 16:9
Frame rate mode : Constant
Frame rate : 23.976 (24000/1001) FPS
Color space : YUV
Chroma subsampling : 4:2:0
Bit depth : 8 bits
Scan type : Progressive
Bits/(Pixel*Frame) : 0.538
Stream size : 18.9 GiB (87%)
Language : English
Default : Yes
Forced : No

Audio #1
ID : 2
Format : AC-3
Format/Info : Audio Coding 3
Codec ID : A_AC3
Duration : 1 h 41 min
Bit rate mode : Constant
Bit rate : 384 kb/s
Channel(s) : 6 channels
Channel positions : Front: L C R, Side: L R, LFE
Sampling rate : 48.0 kHz
Frame rate : 31.250 FPS (1536 SPF)
Bit depth : 16 bits
Compression mode : Lossy
Stream size : 278 MiB (1%)
Title : iTunes
Language : Russian
Service kind : Complete Main
Default : Yes
Forced : Yes

Audio #2
ID : 3
Format : DTS
Format/Info : Digital Theater Systems
Format profile : MA / Core
Codec ID : A_DTS
Duration : 1 h 41 min
Bit rate mode : Variable / Constant
Bit rate : 3 448 kb/s / 1 509 kb/s
Channel(s) : 6 channels
Channel positions : Front: L C R, Side: L R, LFE
Sampling rate : 48.0 kHz
Frame rate : 93.750 FPS (512 SPF)
Bit depth : 24 bits
Compression mode : Lossless / Lossy
Stream size : 2.44 GiB (11%)
Title : Original
Language : English
Default : No
Forced : No

Text #1
ID : 4
Format : UTF-8
Codec ID : S_TEXT/UTF8
Codec ID/Info : UTF-8 Plain Text
Duration : 1 h 33 min
Bit rate : 94 b/s
Count of elements : 1215
Stream size : 65.1 KiB (0%)
Title : Full
Language : Russian
Default : No
Forced : No

Text #2
ID : 5
Format : UTF-8
Codec ID : S_TEXT/UTF8
Codec ID/Info : UTF-8 Plain Text
Duration : 1 h 33 min
Bit rate : 56 b/s
Count of elements : 1203
Stream size : 38.8 KiB (0%)
Title : Full
Language : English
Default : No
Forced : No

Text #3
ID : 6
Format : UTF-8
Codec ID : S_TEXT/UTF8
Codec ID/Info : UTF-8 Plain Text
Duration : 1 h 35 min
Bit rate : 63 b/s
Count of elements : 1429
Stream size : 44.4 KiB (0%)
Title : SDH
Language : English
Default : No
Forced : No

Menu
00:00:00.000 : en:00:00:00.000
00:03:36.049 : en:00:03:36.049
00:07:53.181 : en:00:07:53.181
00:13:41.195 : en:00:13:41.195
00:16:39.373 : en:00:16:39.373
00:20:45.035 : en:00:20:45.035
00:26:04.312 : en:00:26:04.312
00:29:27.265 : en:00:29:27.265
00:35:58.573 : en:00:35:58.573
00:40:36.475 : en:00:40:36.475
00:44:46.433 : en:00:44:46.433
00:48:15.100 : en:00:48:15.100
00:52:07.499 : en:00:52:07.499
00:56:06.780 : en:00:56:06.780
00:59:07.085 : en:00:59:07.085
01:03:17.710 : en:01:03:17.710
01:08:45.079 : en:01:08:45.079
01:14:03.230 : en:01:14:03.230
01:16:34.965 : en:01:16:34.965
01:20:46.925 : en:01:20:46.925
01:23:36.219 : en:01:23:36.219
01:30:09.737 : en:01:30:09.737
01:33:02.493 : en:01:33:02.493
01:35:41.235 : en:01:35:41.235

Автор релиза:


Подпишись на меня, кликни по картинке > :

x

Не пропустите

Фокстрот / Foxtrot (2017) WEB-DL 1080p | iTunes

СКАЧАТЬ TORRENT ФАЙЛ Информация о фильме Название: Фокстрот Оригинальное название: Foxtrot Год выхода: 2017 Жанр: ...