Главная » Видео » Мультфильмы » Конь БоДжек / BoJack Horseman [S05] (2018) WEBRip 1080p | LakeFilms

Конь БоДжек / BoJack Horseman [S05] (2018) WEBRip 1080p | LakeFilms

СКАЧАТЬ TORRENT ФАЙЛ

Название: Конь БоДжек
Оригинальное название: BoJack Horseman
Год выпуска: 2018
Жанр: Мультсериал для взрослых, комедия
Выпущено: США, Tornante Company, ShadowMachine Films
Режиссер: Рафаэль Боб-Вэксберг
В ролях: Адам Коновер, Аарон Пол, Уилл Арнетт, Эми Седарис, Мина Нодзи, Пол Ф. Томпкинс, Элисон Бри, Рэйчел Блум, Майк Холлингсворт, Пэттон Освальт

О фильме: БоДжек — это не только лошадь, но и бывшая звезда популярного ситкома 90-х. В наши дни он пытается снова встать на ноги и ищет себя в череде провалов, самоуничижения, запоев и неудачных взаимоотношений. Герой сериала глушит виски, носит цветные свитера и несмешно шутит. Окружающие его не понимают, хотя пытаются помочь. В их числе — небритый друг Тодд и бывшая любовница Принцесса Каролина.

Техданные
Качество: WEBRip (1080p)
Видео: MPEG-4 AVC, 11.7 Мбит/с, 1920×1080, 23.976 FPS
Аудио: AAC, 2 ch, 192 Кбит/с
Продолжительность: 12 x ~ 00:26:00
Перевод: Любительский двухголосый закадровый (LakeFilms)
Присутствует реклама!

Скриншоты


MIGeneral
Complete name : D:LakeFIlmsReleasesBojack.Horseman.S05.WEB-DL.1080p.LakeFilmsBojack.Horseman.S05E01.The.Light.Bulb.Scene.1080p.WEB-DL.2.0.x264.LakeFilms.mp4
Format : MPEG-4
Format profile : Base Media / Version 2
Codec ID : mp42 (isom/mp42)
File size : 2.18 GiB
Duration : 26 min 44 s
Overall bit rate mode : Variable
Overall bit rate : 11.7 Mb/s
Encoded date : UTC 2018-11-05 17:02:35
Tagged date : UTC 2018-11-05 17:02:35

Video
ID : 1
Format : HEVC
Format/Info : High Efficiency Video Coding
Format profile : Main@L4@High
Codec ID : hvc1
Codec ID/Info : High Efficiency Video Coding
Duration : 26 min 44 s
Bit rate : 11.5 Mb/s
Width : 1 920 pixels
Height : 1 080 pixels
Display aspect ratio : 16:9
Frame rate mode : Constant
Frame rate : 25.000 FPS
Color space : YUV
Chroma subsampling : 4:2:0
Bit depth : 8 bits
Bits/(Pixel*Frame) : 0.221
Stream size : 2.14 GiB (98%)
Language : English
Encoded date : UTC 2018-11-05 17:02:38
Tagged date : UTC 2018-11-05 17:02:38
Codec configuration box : hvcC

Audio
ID : 2
Format : AAC LC
Format/Info : Advanced Audio Codec Low Complexity
Format profile : AAC@L2
Codec ID : mp4a-40-2
Duration : 26 min 43 s
Bit rate mode : Variable
Bit rate : 192 kb/s
Maximum bit rate : 313 kb/s
Channel(s) : 2 channels
Channel layout : L R
Sampling rate : 48.0 kHz
Frame rate : 46.875 FPS (1024 SPF)
Compression mode : Lossy
Stream size : 36.2 MiB (2%)
Language : English
Encoded date : UTC 2018-11-05 17:02:38
Tagged date : UTC 2018-11-05 17:02:38

x

Не пропустите

Хан Соло: Звёздные Войны. Истории 3Д / Solo: A Star Wars Story 3D (2018) Blu-ray EUR 1080p | 3D-Video | Лицензия

СКАЧАТЬ TORRENT ФАЙЛ Информация о фильме Название: Хан Соло: Звёздные Войны. Истории 3Д Оригинальное название: ...