Главная » Видео » Мультфильмы » Гриффины / Family Guy [S16] (2017) WEBRip | OMSKBIRD

Гриффины / Family Guy [S16] (2017) WEBRip | OMSKBIRD

СКАЧАТЬ TORRENT ФАЙЛ

Информация о фильме
Название: Гриффины
Оригинальное название: Family Guy
Год выхода: 2017
Жанр: Мультсериал, комедия, пародия, чёрный юмор
Режиссер: Сет МакФарлейн
В ролях: Сет МакФарлейн, Алекс Борштейн, Сет Грин, Мила Кунис, Майк Генри, Дэнни Смит, Патрик Варбертон, Джон Винер, Алек Салкин, Ральф Гармен и др.

О фильме:
«Гриффины» (Family Guy) — анимационное ТВ-Шоу, созданное Сетом МакФарлейном (Seth MacFarlane) для телеканала FOX. Как нетрудно догадаться, главными героями шоу является семейка Гриффинов: тупой, но полный сумашедших идей, составляющих львиную долю шуток сериала, отец семейства Питер; его любящя и терпеливая жена Лойс, всеми силами пытающаяся превратить Гриффинов в нормальную семью; их интеллектуально развитый не по годам, вынашивающий идею мирового господства младший сын Стьюи; дочь-ботаник, обречённая из-за этого на одиночество и непонимание как в школе так и дома, Мэг; и 13-ти летний отсталый в развитии лет на 10, сын Крис. Также полноценным членом семьи является пёс Брайн — склонный к меланхолии эстет, спокойно наблюдающий с бокалом вина в лапе над приключениями Питера и остальных членов семьи (и это при всём притом, что остальные собаки в сериале не являются очеловеченными).


Страна: США
Продолжительность: ~ 22 мин. серия
Перевод: Любительский (многоголосый закадровый) | OMSKBIRD

Файл
Кодек: Xvid
Качество: WEBRip
Видео: AVI, 720×400 (16:9), 23.976 fps, ~ 1300 kbps
Звук: Аудио rus: AC-3, 48 KHz, 2 ch, 192 kbps | OMSKBIRD records

Семпл

Присутствует реклама!

Скриншоты

Mediainfo:General
Complete name : H:Мои ДокументыВидеоРАЗДАЧИГриффиныFamily Guy S16 WEBRip (OMSKBIRD)Family Guy S16E01 WEBRip (OMSKBIRD).avi
Format : AVI
Format/Info : Audio Video Interleave
File size : 233 MiB
Duration : 22 min 13 s
Overall bit rate : 1 462 kb/s
Writing application : VirtualDubMod 1.5.10.3 | www.virtualdub-fr.org || (build 2550/release)
Writing library : VirtualDubMod build 2550/release

Video
ID : 0
Format : MPEG-4 Visual
Format profile : Advanced Simple@L5
Format settings, BVOP : 1
Format settings, QPel : No
Format settings, GMC : No warppoints
Format settings, Matrix : Default (H.263)
Codec ID : XVID
Codec ID/Hint : XviD
Duration : 22 min 13 s
Bit rate : 1 261 kb/s
Width : 720 pixels
Height : 400 pixels
Display aspect ratio : 16:9
Frame rate : 23.976 (24000/1001) FPS
Color space : YUV
Chroma subsampling : 4:2:0
Bit depth : 8 bits
Scan type : Progressive
Compression mode : Lossy
Bits/(Pixel*Frame) : 0.183
Stream size : 200 MiB (86%)
Writing library : XviD 67

Audio
ID : 1
Format : AC-3
Format/Info : Audio Coding 3
Format settings, Endianness : Big
Codec ID : 2000
Duration : 22 min 13 s
Bit rate mode : Constant
Bit rate : 192 kb/s
Channel(s) : 2 channels
Channel positions : Front: L R
Sampling rate : 48.0 kHz
Frame rate : 31.250 FPS (1536 SPF)
Bit depth : 16 bits
Compression mode : Lossy
Stream size : 30.5 MiB (13%)
Alignment : Split accross interleaves
Interleave, duration : 42 ms (1.00 video frame)
Interleave, preload duratio : 500 ms
Service kind : Complete Main

Релиз:Перевод • Егор Ярославцев
Роли озвучивали • Константин Погодаев, Анна Тух, Станислав Черсков
Звукорежиссер • Павел Квентов
Постер • Ксения Просветова
Релиз подготовил • Gater

x

Не пропустите

Орвилл / The Orville [S01] (2017) WEB-DL 1080p | TVShows

СКАЧАТЬ TORRENT ФАЙЛ Орвилл / The Orville Страна: США Производство: 20th Century Fox Television, Fuzzy ...