Главная » Видео » Мультфильмы » Дикие предки / Early Man (2018) BDRip 720p от ExKinoRay | iTunes

Дикие предки / Early Man (2018) BDRip 720p от ExKinoRay | iTunes

СКАЧАТЬ TORRENT ФАЙЛ

Информация о фильме
Название: Дикие предки
Оригинальное название: Early Man
Год выхода: 2018
Жанр: Мультфильм, семейный, приключения, полнометражный
Режиссер: Ник Парк
В ролях: Том Хиддлстон, Эдди Редмэйн, Мэйси Уильямс, Тимоти Сполл, Ричард Айоади, Марк Уильямс, Мириам Марголис, Ник Парк, Роб Брайдон, Кайван Новак

О фильме: Каменный век и даже более поздние цивилизации — всё равно дикие предки, но как же они были похожи на нас. У них тоже было слишком много родственников, а мужчины боролись за любимую женщину. Они тоже обожали драгоценности, играли в кожаный мяч, и каждый стремился стать первым…

Страна: Великобритания, Франция
Студия: Aardman Animations
Продолжительность: 01:28:40
Перевод: Дублированный | iTunes

Качество: BDRip 1080p
Видео: MPEG-4 AVC, 1280×694, 5234 Кbit/s, 23.976 fps
Звук:
Аудио #01: 48 kHz, AC3, 5.1, 384 Kbps | iTunes | RUS |

Аудио #02: 48 kHz, AC3, 5.1, 384 Kbps | iTunes | UKR |

Аудио #03: 48 kHz, AC3, 5.1, 448 Kbps | Оригинал | ENG |

Субтитры: Английские

MIGeneral
Unique ID : 223664526468110061988515002597364591253 (0xA844388D0C22270FAC2033451A61EA95)
Complete name : C:Video111Early.Man.2018.BDRip.720p.ExKinoRay.mkv
Format : Matroska
Format version : Version 4 / Version 2
File size : 3.99 GiB
Duration : 1 h 28 min
Overall bit rate : 6 448 kb/s
Movie name : Early Man 2018 fron ExKinoRay
Encoded date : UTC 2018-05-22 00:21:13
Writing application : mkvmerge v7.3.0 ('Nouages') 64bit built on Oct 22 2014 18:53:34
Writing library : libebml v1.3.0 + libmatroska v1.4.1

Video
ID : 1
Format : AVC
Format/Info : Advanced Video Codec
Format profile : High@L4.1
Format settings : CABAC / 9 Ref Frames
Format settings, CABAC : Yes
Format settings, ReFrames : 9 frames
Codec ID : V_MPEG4/ISO/AVC
Duration : 1 h 28 min
Bit rate : 5 234 kb/s
Width : 1 280 pixels
Height : 694 pixels
Display aspect ratio : 1.85:1
Frame rate mode : Constant
Frame rate : 23.976 (24000/1001) FPS
Color space : YUV
Chroma subsampling : 4:2:0
Bit depth : 8 bits
Scan type : Progressive
Bits/(Pixel*Frame) : 0.246
Stream size : 3.24 GiB (81%)
Writing library : x264 core 148 r2705 3f5ed56
Encoding settings : cabac=1 / ref=9 / deblock=1:-2:-2 / analyse=0x3:0x133 / me=umh / subme=10 / psy=1 / psy_rd=1.05:0.05 / mixed_ref=1 / me_range=32 / chroma_me=1 / trellis=2 / 8x8dct=1 / cqm=0 / deadzone=21,11 / fast_pskip=0 / chroma_qp_offset=-3 / threads=12 / lookahead_threads=2 / sliced_threads=0 / nr=0 / decimate=0 / interlaced=0 / bluray_compat=0 / constrained_intra=0 / bframes=8 / b_pyramid=2 / b_adapt=2 / b_bias=0 / direct=3 / weightb=1 / open_gop=0 / weightp=2 / keyint=240 / keyint_min=23 / scenecut=40 / intra_refresh=0 / rc_lookahead=50 / rc=2pass / mbtree=0 / bitrate=5234 / ratetol=1.0 / qcomp=0.60 / qpmin=0 / qpmax=51 / qpstep=4 / cplxblur=20.0 / qblur=0.5 / vbv_maxrate=50000 / vbv_bufsize=62500 / nal_hrd=none / filler=0 / ip_ratio=1.40 / pb_ratio=1.30 / aq=3:0.80
Language : English
Default : Yes
Forced : No

Audio #1
ID : 2
Format : AC-3
Format/Info : Audio Coding 3
Codec ID : A_AC3
Duration : 1 h 28 min
Bit rate mode : Constant
Bit rate : 384 kb/s
Channel(s) : 6 channels
Channel positions : Front: L C R, Side: L R, LFE
Sampling rate : 48.0 kHz
Frame rate : 31.250 FPS (1536 SPF)
Bit depth : 16 bits
Compression mode : Lossy
Stream size : 244 MiB (6%)
Title : iTunes
Language : Russian
Service kind : Complete Main
Default : Yes
Forced : Yes

Audio #2
ID : 3
Format : AC-3
Format/Info : Audio Coding 3
Codec ID : A_AC3
Duration : 1 h 28 min
Bit rate mode : Constant
Bit rate : 384 kb/s
Channel(s) : 6 channels
Channel positions : Front: L C R, Side: L R, LFE
Sampling rate : 48.0 kHz
Frame rate : 31.250 FPS (1536 SPF)
Bit depth : 16 bits
Compression mode : Lossy
Stream size : 244 MiB (6%)
Title : iTunes
Language : Ukrainian
Service kind : Complete Main
Default : No
Forced : No

Audio #3
ID : 4
Format : AC-3
Format/Info : Audio Coding 3
Codec ID : A_AC3
Duration : 1 h 28 min
Bit rate mode : Constant
Bit rate : 448 kb/s
Channel(s) : 6 channels
Channel positions : Front: L C R, Side: L R, LFE
Sampling rate : 48.0 kHz
Frame rate : 31.250 FPS (1536 SPF)
Bit depth : 16 bits
Compression mode : Lossy
Stream size : 284 MiB (7%)
Title : Original
Language : English
Service kind : Complete Main
Default : No
Forced : No

Text
ID : 5
Format : UTF-8
Codec ID : S_TEXT/UTF8
Codec ID/Info : UTF-8 Plain Text
Duration : 1 h 25 min
Bit rate : 62 b/s
Count of elements : 1554
Stream size : 39.5 KiB (0%)
Language : English
Default : No
Forced : No

Menu
00:00:00.000 : en:00:00:00.000
00:06:07.701 : en:00:06:07.701
00:09:12.635 : en:00:09:12.635
00:16:28.112 : en:00:16:28.112
00:20:00.699 : en:00:20:00.699
00:25:48.255 : en:00:25:48.255
00:30:27.659 : en:00:30:27.659
00:34:12.092 : en:00:34:12.092
00:40:13.995 : en:00:40:13.995
00:45:28.142 : en:00:45:28.142
00:50:12.301 : en:00:50:12.301
00:57:18.643 : en:00:57:18.643
01:00:41.137 : en:01:00:41.137
01:04:59.187 : en:01:04:59.187
01:11:13.060 : en:01:11:13.060
01:16:59.823 : en:01:16:59.823

Автор релиза:


Подпишись на меня, кликни по картинке > :

x

Не пропустите

Оттенки синего / Shades of Blue [03×01-05 из 13] (2018) WEBRip 1080p | GostFilm

СКАЧАТЬ TORRENT ФАЙЛ Информация о фильме Название: Оттенки синего Оригинальное название: Shades of Blue Год ...