Главная » Видео » Аниме » Вольный стиль! (Заплыв в будущее) / Free! Dive to the Future [03×01 из 12] (2018) HDTVRip 720p от AniMedia | L

Вольный стиль! (Заплыв в будущее) / Free! Dive to the Future [03×01 из 12] (2018) HDTVRip 720p от AniMedia | L

СКАЧАТЬ TORRENT ФАЙЛ

Информация о фильме
Название: Вольный стиль! (Заплыв в будущее)
Оригинальное название: Free! Dive to the Future
Страна: Япония

Год выхода: 2018
Жанр: Повседневность, спорт
Режиссер: Эйсаку Каванами

О фильме: Харука, преподающий в Токийском университете, пересекается с Асахи, что пробуждает воспоминания о старшей школе, в том числе он вспоминает и об Икуе. Макото вместе с Харукой изо всех сил старается воплотить свою новую мечту в Токио. А у Ри́на приключается неожиданная встреча в Сиднее. Будут ли они смотреть вперёд, в ожидании своего будущего? Или же предпочтут предаться воспоминаниям о прошлом?

Студия:

Продолжительность: ~ 00:24:00
Перевод: Любительский (многоголосый закадровый)
Озвучили: KASHI & NAZEL & KingMaster

Файл
Формат: mp4
Качество: HDTVRip 720p
Видео: H.264; 1280×720; ~ 2000 Kbps, 23.976fps; (8 bit)
Аудио 1: AAC 48000 Hz, 2.0, 192 kbps Язык Русский
Аудио 2: AAC 48000 Hz, 2.0, 192 kbps Язык Японский
Субтитры: (внешние ASS) Язык субтитров русский ; Перевод: Nika_Elrik — Harushechka [YakuSub Studio]

Инфо-файл
Общее
Полное имя : F:KinozalFree!_Dive_to_the_Future_[AniMedia.]Free!_Dive_to_the_Future_[01]_[KASHI & NAZEL & KingMaster.ass
Размер файла : 149 Кбайт

Общее
Полное имя : F:KinozalFree!_Dive_to_the_Future_[AniMedia.]Free!_Dive_to_the_Future_[01]_[KASHI & NAZEL & KingMaster.mp4
Формат : MPEG-4
Профиль формата : Base Media
Идентификатор кодека : isom
Размер файла : 470 Мбайт
Продолжительность : 24 м.
Режим общего битрейта : Переменный
Общий поток : 2738 Кбит/сек
Дата кодирования : UTC 2018-07-11 02:32:51
Дата пометки : UTC 2018-07-11 02:32:51
Программа кодирования : Yamb 2.1.0.0 [http://yamb.unite-video.com]

Видео
Идентификатор : 1
Формат : AVC
Формат/Информация : Advanced Video Codec
Профиль формата : Main@L4.1
Параметр CABAC формата : Да
Параметр ReFrames формата : 4 кадра
Идентификатор кодека : avc1
Идентификатор кодека/Информация : Advanced Video Coding
Продолжительность : 24 м.
Битрейт : 2328 Кбит/сек
Максимальный битрейт : 17,6 Мбит/сек
Ширина : 1280 пикселей
Высота : 720 пикселей
Соотношение сторон : 16:9
Режим частоты кадров : Постоянный
Частота кадров : 23,976 кадра/сек
Цветовое пространство : YUV
Субдискретизация насыщенности : 4:2:0
Битовая глубина : 8 бит
Тип развёртки : Прогрессивная
Бит/(Пиксели*Кадры) : 0.105
Размер потока : 400 Мбайт (85%)
Библиотека кодирования : x264 core 155 r2901 7d0ff22
Настройки программы : cabac=1 / ref=3 / deblock=1:0:0 / analyse=0x1:0x111 / me=hex / subme=7 / psy=1 / psy_rd=1.00:0.00 / mixed_ref=1 / me_range=16 / chroma_me=1 / trellis=1 / 8x8dct=0 / cqm=0 / deadzone=21,11 / fast_pskip=1 / chroma_qp_offset=-2 / threads=18 / lookahead_threads=3 / sliced_threads=0 / nr=0 / decimate=1 / interlaced=0 / bluray_compat=0 / constrained_intra=0 / bframes=3 / b_pyramid=2 / b_adapt=1 / b_bias=0 / direct=1 / weightb=1 / open_gop=0 / weightp=2 / keyint=240 / keyint_min=1 / scenecut=40 / intra_refresh=0 / rc_lookahead=40 / rc=crf / mbtree=1 / crf=20.0 / qcomp=0.60 / qpmin=0 / qpmax=69 / qpstep=4 / ip_ratio=1.40 / aq=1:1.50
Дата кодирования : UTC 2018-07-11 15:49:50
Дата пометки : UTC 2018-07-11 02:32:56
Цветовой диапазон : Limited
Основные цвета : BT.709
Характеристики трансфера : BT.709
Коэффициенты матрицы : BT.709

Аудио #1
Идентификатор : 2
Формат : AAC
Формат/Информация : Advanced Audio Codec
Профиль формата : LC
Идентификатор кодека : 40
Продолжительность : 24 м.
Вид битрейта : Переменный
Битрейт : 192 Кбит/сек
Максимальный битрейт : 198 Кбит/сек
Каналы : 2 канала
Расположение каналов : Front: L R
Частота : 48,0 КГц
Метод сжатия : С потерями
Размер потока : 33,0 Мбайт (7%)
Заголовок : KASHI & NAZEL & KingMaster
Язык : Russian
Дата кодирования : UTC 2018-07-11 02:32:55
Дата пометки : UTC 2018-07-11 02:32:56

Аудио #2
Идентификатор : 3
Формат : AAC
Формат/Информация : Advanced Audio Codec
Профиль формата : LC
Идентификатор кодека : 40
Продолжительность : 24 м.
Вид битрейта : Переменный
Битрейт : 212 Кбит/сек
Максимальный битрейт : 257 Кбит/сек
Каналы : 2 канала
Расположение каналов : Front: L R
Частота : 48,0 КГц
Метод сжатия : С потерями
Размер потока : 36,5 Мбайт (8%)
Язык : Japanese
Дата кодирования : UTC 2018-07-11 02:32:55
Дата пометки : UTC 2018-07-11 02:32:56
Список серий01 — Погружение начала

Скриншоты

x

Не пропустите

VA — Zeitgeist vol. 6 (2018) MP3

СКАЧАТЬ TORRENT ФАЙЛ Название: Zeitgeist vol. 6 Исполнитель: VA Год: 2018 Жанр: Alternative, Coldwave, Darkwave, ...