Главная » Видео » Аниме » В горы / Yama no Susume: Third Season [S3] (2018) WEBRip 720p | Persona99

В горы / Yama no Susume: Third Season [S3] (2018) WEBRip 720p | Persona99

СКАЧАТЬ TORRENT ФАЙЛ

Информация о фильме

Название : В горы
Оригинальное название : Yama no Susume: Third Season / Encouragement of Climb: Season 3 / ヤマノススメ サードシーズン
Год выхода : 2018
Тип: TV
Жанр : Комедия, повседневность
Режиссер : Ямамото Юсукэ

Описание : Аой и Хината — две противоположности, но при этом подруги детства. Аой, застенчивая и молчаливая, предпочитает оставаться дома и боится высоты, в то время как Хината, энергичная и искрящаяся весельем, любит альпинизм. Кто бы мог подумать, что этих двух девушек может связывать общая мечта? Боящаяся высоты Аой воссоединяется со своей подругой детства в первый же день старшей школы, после чего Хината решает напомнить подруге их давнишнюю мечту, повсюду таская Аой с собой и заставляя её участвовать в альпинизме и прочих мероприятиях, проводящихся на свежем воздухе. В ходе этих гуляний Аой, погружаясь в старые воспоминания, осознаёт, как было бы весело подняться в горы, и решает исполнить когда-то данное обещание снова встретить восход солнца, что они видели с подругой, когда были ещё детьми. В течение всего сезона, меняющегося с лета на осень, девочки встречают много новых друзей, искренне разделяющих их цель, и вместе с ними принимают решения, на какую гору взобраться в следующий раз.

world-art | MyAnimeList | Офиц. Сайт

Страна : Япония
Производство : 8 bit
Продолжительность : 13 эпизодов по ~00:24:00
Перевод: Любительский (одноголосый, закадровый)

Перевод:

Русские субтитры: Risens Team
Переводчик: krifemcombo

Озвучка: Get Smart Group
— одноголосая (жен.): Persona99
Тех. работы: Дмитрий Леманн

Автор рипа: HorribleSubs

Файл
Качество : WEBRip
Тип релиза: Без хардсаба
Формат видео: MKV
Наличие линковки: Нет

Видео: AVC, 1280×720 (16:9), 1982 kbps, 23.976 fps, 8bit
Аудио 1: Русский, AC3, 192 Кбит/с, 48.0 kHz, 2 ch (в составе контейнера)
Аудио 2: Японский, AС3, 192 Кбит/с, 48.0 kHz, 2 ch (в составе контейнера)
Субтитры 1 (ASS): Русские (в составе контейнера) — Надписи
Субтитры 2 (ASS): Русские (в составе контейнера) — Полные
Субтитры 3 (ASS): Английские (в составе контейнера) — Перевод: Crunchyroll

Список эпизодов
01. Первое свидание на г. Цукуба?! / First Date at Mt. Tsukuba!?
02. Альпинистская обувь и вправду хороша? / Are Hiking Shoes Really Awesome?
03. Альпы в Ханно?! / Alps in Hanno?!
04. Развлечения с одноклассниками! / Having Fun with Classmates!
05. Сфотографируем свои воспоминания! / Let`s Photograph Our Memories!
06. Каков кофе на вкус? / What Does Coffee Taste Like?
07. Она же не работает, почему бы ей не пойти в горы?! / She Who Does Not Work, Neither Shall She Climb?!
08. Два обещания / Two Promises
09. Собственные взгляды каждого / Everyone`s Own Views
10. Сезон недопониманий / Season of Misunderstandings
11. Неуклюжее Пересечение / A Clumsy Traversal
12. Друзья / Friends
13. Это секрет, да? / It`s a Secret

Скриншоты

MediaInfo

General
Unique ID : 221499392709853504150895298529392222942 (0xA6A33B370624410EA3E2F88F38F262DE)
Complete name : E:/Torrent_2/Yama no Susume S3 (2018, AVC WEBRip-720p, RUS JAP+SUB)/[HorribleSubs] Yama no Susume S3 — 01 [720p] [Persona99.GSG].mkv
Format : Matroska
Format version : Version 2
File size : 244 MiB
Duration : 13mn 30s
Overall bit rate : 2 524 Kbps
Encoded date : UTC 2018-10-09 13:43:38
Writing application : mkvmerge v5.5.0 ('Healer') built on Apr 6 2012 21:43:24
Writing library : libebml v1.2.3 + libmatroska v1.3.0
Attachment : Yes / Yes / Yes / Yes / Yes

Video #1
ID : 1
Format : AVC
Format/Info : Advanced Video Codec
Format profile : High@L4.0
Format settings, CABAC : Yes
Format settings, ReFrames : 6 frames
Codec ID : V_MPEG4/ISO/AVC
Duration : 13mn 30s
Bit rate : 2 090 Kbps
Width : 1 280 pixels
Height : 720 pixels
Display aspect ratio : 16:9
Frame rate mode : Constant
Frame rate : 23.976 fps
Color space : YUV
Chroma subsampling : 4:2:0
Bit depth : 8 bit s
Scan type : Progressive
Bits/(Pixel*Frame) : 0.095
Stream size : 202 MiB (83%)
Writing library : x264 core 142
Encoding settings : cabac=1 / ref=6 / deblock=1:1:1 / analyse=0x3:0x113 / me=umh / subme=8 / psy=1 / psy_rd=0.40:0.00 / mixed_ref=1 / me_range=16 / chroma_me=1 / trellis=1 / 8x8dct=1 / cqm=0 / deadzone=21,11 / fast_pskip=1 / chroma_qp_offset=-2 / threads=10 / lookahead_threads=1 / sliced_threads=0 / nr=0 / decimate=1 / interlaced=0 / bluray_compat=0 / constrained_intra=0 / bframes=3 / b_pyramid=2 / b_adapt=2 / b_bias=0 / direct=3 / weightb=1 / open_gop=0 / weightp=2 / keyint=48 / keyint_min=24 / scenecut=40 / intra_refresh=0 / rc_lookahead=48 / rc=crf / mbtree=1 / crf=15.0 / qcomp=0.60 / qpmin=0 / qpmax=69 / qpstep=4 / vbv_maxrate=4000 / vbv_bufsize=6000 / crf_max=0.0 / nal_hrd=none / filler=0 / ip_ratio=1.40 / aq=1:0.60
Language : Japanese
Default : Yes
Forced : No

Audio #2
ID : 2
Format : AC-3
Format/Info : Audio Coding 3
Mode extension : CM (complete main)
Format settings, Endianness : Big
Codec ID : A_AC3
Duration : 13mn 30s
Bit rate mode : Constant
Bit rate : 192 Kbps
Channel(s) : 2 channels
Channel positions : Front: L R
Sampling rate : 48.0 KHz
Bit depth : 16 bits
Compression mode : Lossy
Stream size : 18.5 MiB (8%)
Title : Persona99 [Get Smart Group] Language : Russian
Default : Yes
Forced : No

Audio #3
ID : 3
Format : AC-3
Format/Info : Audio Coding 3
Mode extension : CM (complete main)
Format settings, Endianness : Big
Codec ID : A_AC3
Duration : 13mn 30s
Bit rate mode : Constant
Bit rate : 192 Kbps
Channel(s) : 2 channels
Channel positions : Front: L R
Sampling rate : 48.0 KHz
Bit depth : 16 bits
Compression mode : Lossy
Stream size : 18.5 MiB (8%)
Language : Japanese
Default : No
Forced : No

Text #4
ID : 4
Format : ASS
Codec ID : S_TEXT/ASS
Codec ID/Info : Advanced Sub Station Alpha
Compression mode : Lossless
Title : Надписи
Language : Russian
Default : Yes
Forced : No

Text #5
ID : 5
Format : ASS
Codec ID : S_TEXT/ASS
Codec ID/Info : Advanced Sub Station Alpha
Compression mode : Lossless
Title : Полные
Language : Russian
Default : No
Forced : No

Text #6
ID : 6
Format : ASS
Codec ID : S_TEXT/ASS
Codec ID/Info : Advanced Sub Station Alpha
Compression mode : Lossless
Language : English
Default : No
Forced : No

x

Не пропустите

Американская семейка / Modern Family [10х01-10 из 22] (2018) HDTVRip 720p | SunshineStudio

СКАЧАТЬ TORRENT ФАЙЛ Информация о сериале Название: Американская семейка Оригинальное название: Modern Family Год выпуска: ...