Главная » Видео » Аниме » Сказка о хвосте феи / Fairy Tail [03×01-07 из 25] (2018) WEBRip 720p | ColdFilm

Сказка о хвосте феи / Fairy Tail [03×01-07 из 25] (2018) WEBRip 720p | ColdFilm

СКАЧАТЬ TORRENT ФАЙЛ

Информация о фильме
Название: Хвост Феи
Оригинальное название: Fairy Tail
Год выпуска: 2018
Жанр: Приключения, фэнтези, комедия, сёнэн, мультсериал
Режиссер: Синдзи Исихира
В ролях: Тэцуя Какихара, Ая Хирано, Риэ Кугимия, Юйти Накамура, Саяка Охара, Сатоми Сато, Юй Хориэ, Ватару Хатано, Май Накахара, Кацуюки Кониси

О фильме:
Прошёл год с тех пор, как Макаров объявил о роспуске Хвоста феи. Все члены гильдии разошлись по миру. Люси всерьёз занялась журналистикой в столице. Но скуку её новой жизни развеял Нацу, неожиданно заявившийся на Великие магические игры. Теперь они вместе отправились на поиски остальных участников легендарной гильдии.


Страна: Япония
Студия: Bridge, A-1 Pictures Inc.
Продолжительность: 7 x ~ 00:24:00
Перевод: Любительский многоголосый | ColdFilm

Файл
Кодек: x264 (AVC)
Качество: WEBRip 720p
Видео: ~ 3000 Кбит/с, 1280×720, 23.976 fps
Звук: Русский / AC3 / 2.0 / 128 kbs

Скриншоты

MIGeneral
Unique ID : 198397633058966781007840261227922363508 (0x9541FE8689A2F4A990232C48A0B49474)
Complete name : Fairy.Tail.S03E01.720p.ColdFilm.mkv
Format : Matroska
Format version : Version 2
File size : 564 MiB
Duration : 24 min 18 s
Overall bit rate : 3 247 kb/s
Encoded date : UTC 2018-10-07 00:57:43 / UTC 1970-01-01 00:00:00
Writing application : mkvmerge v3.3.0 ('Language') built on Mar 24 2010 14:59:24
Writing library : libebml v0.8.0 + libmatroska v0.9.0 / Lavf54.63.104

Video
ID : 1
Format : AVC
Format/Info : Advanced Video Codec
Format profile : Main@L3.1
Format settings : CABAC / 1 Ref Frames
Format settings, CABAC : Yes
Format settings, ReFrames : 1 frame
Codec ID : V_MPEG4/ISO/AVC
Duration : 24 min 18 s
Bit rate : 3 000 kb/s
Width : 1 280 pixels
Height : 720 pixels
Display aspect ratio : 16:9
Frame rate mode : Constant
Frame rate : 23.976 (24000/1001) FPS
Color space : YUV
Chroma subsampling : 4:2:0
Bit depth : 8 bits
Scan type : Progressive
Bits/(Pixel*Frame) : 0.136
Stream size : 520 MiB (92%)
Writing library : x264 core 129
Default : No
Forced : No

Audio
ID : 2
Format : AC-3
Format/Info : Audio Coding 3
Codec ID : A_AC3
Duration : 24 min 18 s
Bit rate mode : Constant
Bit rate : 192 kb/s
Channel(s) : 2 channels
Channel positions : Front: L R
Sampling rate : 48.0 kHz
Frame rate : 31.250 FPS (1536 SPF)
Bit depth : 16 bits
Compression mode : Lossy
Stream size : 33.4 MiB (6%)
Service kind : Complete Main
Default : Yes
Forced : No

x

Не пропустите

О моём перерождении в слизь / Tensei Shitara Slime Datta Ken [01-12 из 24] (2018) WEBRip 1080p от AniDUB | L2

СКАЧАТЬ TORRENT ФАЙЛ Информация о фильме Название: О моём перерождении в слизь Оригинальное название: Tensei ...