Главная » Видео » Аниме » Мастера меча онлайн: Алисизация / Sword Art Online: Alicization [01-11 из 12] (2018) HDTVRip 720p от AniMedia | L2

Мастера меча онлайн: Алисизация / Sword Art Online: Alicization [01-11 из 12] (2018) HDTVRip 720p от AniMedia | L2

СКАЧАТЬ TORRENT ФАЙЛ

Информация о фильме
Название: Мастера меча онлайн: Алисизация
Оригинальное название: Sword Art Online: Alicization
Страна: Япония
Год выхода: 2018
Жанр: Приключения, фэнтези
Режиссер: Манабу Оно
Автор оригинала: Кавахара Рэки / 川原礫

О фильме: Порой чрезмерное увлечение компьютерными играми может привести к непредсказуемым последствиям. Вот так и школьник Казуто Киригая по прозвищу Кирито оказался запертым в онлайн-игре «Мастера меча онлайн”. Условия были жестокими, включая смерть в реальной жизни, но Кирито удалось выйти сухим из воды. После этих событий, в Кирито признали профессионала, и даже специально попросили его погрузиться в другую игру «Оружейный шторм онлайн”, чтобы помочь полиции в расследовании преступления. И с этим он тоже справляется. В событиях этого сезона Кирито устраивается на работу в организацию «RATH”, основным проектом которой является проект «Алисизация”. Но мало кто знает, что этот проект на самом деле — разработки правительства Японии. Кирито погружается в виртуальный мир «Андерворлд”. В отличие от предыдущих миров, в которых находился Кирито, «Андерворлд” не является игрой. Здесь ему предстоит всего за 3 дня в нашем мире прожить целых 10 лет в виртуальной реальности. Однако, вернувшись, он забывает обо всём, что с ним там происходило. Позже Кирито вновь возвращается в «Андерворлд”, чтобы выполнить определённую цель, и теперь ему нужно осваивать всё с чистого листа.

Студия:

Продолжительность: 1 x ~ 00:48:00, 10 x ~ 00:24:00
Перевод: Любительский двухголосый
Озвучили: NAZEL & FREYA (AniMedia)
Тайминг и сведение звука: Drahonn,AngryBobrik
Сборка контейнера: Eugeo

Файл
Формат: mp4
Качество: HDTVRip 720p
Видео: H.264; 1280×720; ~ 2000 Kbps, 23.976fps; (8 bit)
Аудио 1: AAC 48000 Hz, 2.0, 192 kbps Язык Русский
Аудио 2: AAC 48000 Hz, 2.0, ~ 202 kbps Язык Японский
Субтитры: (внешние ASS) Язык субтитров русский ; Перевод: Ziggy Team — Alorian & MeLarie [RisensTeam] — Sovetromantica

Инфо-файл
Общее
Полное имя : K:KinozalSword_Art_Online_Alicization_[AniMedia.TV]Sword_Art_Online_-_Alicization_[01]_[NAZEL & FREYA].ass
Размер файла : 69,7 Кбайт

Общее
Полное имя : K:KinozalSword_Art_Online_Alicization_[AniMedia.TV]Sword_Art_Online_-_Alicization_[01]_[NAZEL & FREYA].mp4
Формат : MPEG-4
Профиль формата : Base Media
Идентификатор кодека : isom
Размер файла : 866 Мбайт
Продолжительность : 48 м.
Режим общего битрейта : Переменный
Общий поток : 2521 Кбит/сек
Дата кодирования : UTC 2018-10-19 22:24:44
Дата пометки : UTC 2018-10-19 22:24:44
Программа кодирования : Yamb 2.1.0.0 [http://yamb.unite-video.com]

Видео
Идентификатор : 1
Формат : AVC
Формат/Информация : Advanced Video Codec
Профиль формата : Main@L4.1
Параметр CABAC формата : Да
Параметр ReFrames формата : 4 кадра
Идентификатор кодека : avc1
Идентификатор кодека/Информация : Advanced Video Coding
Продолжительность : 48 м.
Продолжительность оригинала : 48 м.
Битрейт : 2122 Кбит/сек
Максимальный битрейт : 16,7 Мбит/сек
Ширина : 1280 пикселей
Высота : 720 пикселей
Соотношение сторон : 16:9
Режим частоты кадров : Переменный
Частота кадров : 23,976 кадра/сек
Минимальная частота кадров : 9,901 кадров/сек
Максимальная частота кадров : 24,390 кадра/сек
Цветовое пространство : YUV
Субдискретизация насыщенности : 4:2:0
Битовая глубина : 8 бит
Тип развёртки : Прогрессивная
Бит/(Пиксели*Кадры) : 0.096
Размер потока : 728 Мбайт (84%)
Размер потока оригинала : 728 Мбайт (84%)
Библиотека кодирования : x264 core 157 r2935 545de2f
Настройки программы : cabac=1 / ref=3 / deblock=1:0:0 / analyse=0x1:0x111 / me=hex / subme=7 / psy=1 / psy_rd=1.00:0.00 / mixed_ref=1 / me_range=16 / chroma_me=1 / trellis=1 / 8x8dct=0 / cqm=0 / deadzone=21,11 / fast_pskip=1 / chroma_qp_offset=-2 / threads=18 / lookahead_threads=3 / sliced_threads=0 / nr=0 / decimate=1 / interlaced=0 / bluray_compat=0 / constrained_intra=0 / bframes=3 / b_pyramid=2 / b_adapt=1 / b_bias=0 / direct=1 / weightb=1 / open_gop=0 / weightp=2 / keyint=240 / keyint_min=1 / scenecut=40 / intra_refresh=0 / rc_lookahead=40 / rc=crf / mbtree=1 / crf=20.0 / qcomp=0.60 / qpmin=0 / qpmax=69 / qpstep=4 / ip_ratio=1.40 / aq=1:1.50
Дата кодирования : UTC 2018-10-06 16:08:51
Дата пометки : UTC 2018-10-19 22:25:33
Цветовой диапазон : Limited
Основные цвета : BT.709
Характеристики трансфера : BT.709
Коэффициенты матрицы : BT.709

Аудио #1
Идентификатор : 2
Формат : AAC
Формат/Информация : Advanced Audio Codec
Профиль формата : LC
Идентификатор кодека : 40
Продолжительность : 48 м.
Вид битрейта : Переменный
Битрейт : 192 Кбит/сек
Максимальный битрейт : 199 Кбит/сек
Каналы : 2 канала
Расположение каналов : Front: L R
Частота : 48,0 КГц
Метод сжатия : С потерями
Размер потока : 65,9 Мбайт (8%)
Заголовок : NAZEL & FREYA
Язык : Russian
Дата кодирования : UTC 2018-10-19 22:25:04
Дата пометки : UTC 2018-10-19 22:25:33

Аудио #2
Идентификатор : 3
Формат : AAC
Формат/Информация : Advanced Audio Codec
Профиль формата : LC
Идентификатор кодека : 40
Продолжительность : 48 м.
Вид битрейта : Переменный
Битрейт : 199 Кбит/сек
Максимальный битрейт : 282 Кбит/сек
Каналы : 2 канала
Расположение каналов : Front: L R
Частота : 48,0 КГц
Метод сжатия : С потерями
Размер потока : 68,4 Мбайт (8%)
Дата кодирования : UTC 2018-10-19 22:25:06
Дата пометки : UTC 2018-10-19 22:25:33

Общее
Полное имя : K:KinozalSword_Art_Online_Alicization_[AniMedia.TV]Sword_Art_Online_-_Alicization_[02]_[NAZEL & FREYA].ass
Размер файла : 33,3 Кбайт

Общее
Полное имя : K:KinozalSword_Art_Online_Alicization_[AniMedia.TV]Sword_Art_Online_-_Alicization_[02]_[NAZEL & FREYA].mp4
Формат : MPEG-4
Профиль формата : Base Media
Идентификатор кодека : isom
Размер файла : 375 Мбайт
Продолжительность : 24 м.
Режим общего битрейта : Переменный
Общий поток : 2183 Кбит/сек
Дата кодирования : UTC 2018-10-19 22:30:56
Дата пометки : UTC 2018-10-19 22:30:56
Программа кодирования : Yamb 2.1.0.0 [http://yamb.unite-video.com]

Видео
Идентификатор : 1
Формат : AVC
Формат/Информация : Advanced Video Codec
Профиль формата : Main@L4.1
Параметр CABAC формата : Да
Параметр ReFrames формата : 4 кадра
Идентификатор кодека : avc1
Идентификатор кодека/Информация : Advanced Video Coding
Продолжительность : 24 м.
Битрейт : 1781 Кбит/сек
Максимальный битрейт : 12,5 Мбит/сек
Ширина : 1280 пикселей
Высота : 720 пикселей
Соотношение сторон : 16:9
Режим частоты кадров : Переменный
Частота кадров : 23,976 кадра/сек
Минимальная частота кадров : 10,000 кадров/сек
Максимальная частота кадров : 24,390 кадра/сек
Цветовое пространство : YUV
Субдискретизация насыщенности : 4:2:0
Битовая глубина : 8 бит
Тип развёртки : Прогрессивная
Бит/(Пиксели*Кадры) : 0.081
Размер потока : 306 Мбайт (82%)
Библиотека кодирования : x264 core 157 r2935 545de2f
Настройки программы : cabac=1 / ref=3 / deblock=1:0:0 / analyse=0x1:0x111 / me=hex / subme=7 / psy=1 / psy_rd=1.00:0.00 / mixed_ref=1 / me_range=16 / chroma_me=1 / trellis=1 / 8x8dct=0 / cqm=0 / deadzone=21,11 / fast_pskip=1 / chroma_qp_offset=-2 / threads=18 / lookahead_threads=3 / sliced_threads=0 / nr=0 / decimate=1 / interlaced=0 / bluray_compat=0 / constrained_intra=0 / bframes=3 / b_pyramid=2 / b_adapt=1 / b_bias=0 / direct=1 / weightb=1 / open_gop=0 / weightp=2 / keyint=240 / keyint_min=1 / scenecut=40 / intra_refresh=0 / rc_lookahead=40 / rc=crf / mbtree=1 / crf=20.0 / qcomp=0.60 / qpmin=0 / qpmax=69 / qpstep=4 / ip_ratio=1.40 / aq=1:1.50
Дата кодирования : UTC 2018-10-13 15:35:36
Дата пометки : UTC 2018-10-19 22:31:11
Цветовой диапазон : Limited
Основные цвета : BT.709
Характеристики трансфера : BT.709
Коэффициенты матрицы : BT.709

Аудио #1
Идентификатор : 2
Формат : AAC
Формат/Информация : Advanced Audio Codec
Профиль формата : LC
Идентификатор кодека : 40
Продолжительность : 24 м.
Вид битрейта : Переменный
Битрейт : 192 Кбит/сек
Максимальный битрейт : 201 Кбит/сек
Каналы : 2 канала
Расположение каналов : Front: L R
Частота : 48,0 КГц
Метод сжатия : С потерями
Размер потока : 33,0 Мбайт (9%)
Заголовок : NAZEL & FREYA
Язык : Russian
Дата кодирования : UTC 2018-10-19 22:31:02
Дата пометки : UTC 2018-10-19 22:31:11

Аудио #2
Идентификатор : 3
Формат : AAC
Формат/Информация : Advanced Audio Codec
Профиль формата : LC
Идентификатор кодека : 40
Продолжительность : 24 м.
Вид битрейта : Переменный
Битрейт : 202 Кбит/сек
Максимальный битрейт : 270 Кбит/сек
Каналы : 2 канала
Расположение каналов : Front: L R
Частота : 48,0 КГц
Метод сжатия : С потерями
Размер потока : 34,6 Мбайт (9%)
Дата кодирования : UTC 2018-10-19 22:31:04
Дата пометки : UTC 2018-10-19 22:31:11

Общее
Полное имя : K:KinozalSword_Art_Online_Alicization_[AniMedia.TV]Sword_Art_Online_-_Alicization_[03]_[NAZEL & FREYA].ass
Размер файла : 38,0 Кбайт

Общее
Полное имя : K:KinozalSword_Art_Online_Alicization_[AniMedia.TV]Sword_Art_Online_-_Alicization_[03]_[NAZEL & FREYA].mp4
Формат : MPEG-4
Профиль формата : Base Media
Идентификатор кодека : isom
Размер файла : 379 Мбайт
Продолжительность : 24 м.
Режим общего битрейта : Переменный
Общий поток : 2209 Кбит/сек
Дата кодирования : UTC 2018-10-19 22:34:03
Дата пометки : UTC 2018-10-19 22:34:03
Программа кодирования : Yamb 2.1.0.0 [http://yamb.unite-video.com]

Видео
Идентификатор : 1
Формат : AVC
Формат/Информация : Advanced Video Codec
Профиль формата : Main@L4.1
Параметр CABAC формата : Да
Параметр ReFrames формата : 4 кадра
Идентификатор кодека : avc1
Идентификатор кодека/Информация : Advanced Video Coding
Продолжительность : 24 м.
Битрейт : 1820 Кбит/сек
Максимальный битрейт : 13,3 Мбит/сек
Ширина : 1280 пикселей
Высота : 720 пикселей
Соотношение сторон : 16:9
Режим частоты кадров : Переменный
Частота кадров : 23,976 кадра/сек
Минимальная частота кадров : 8,547 кадров/сек
Максимальная частота кадров : 24,390 кадра/сек
Цветовое пространство : YUV
Субдискретизация насыщенности : 4:2:0
Битовая глубина : 8 бит
Тип развёртки : Прогрессивная
Бит/(Пиксели*Кадры) : 0.082
Размер потока : 312 Мбайт (82%)
Библиотека кодирования : x264 core 157 r2935 545de2f
Настройки программы : cabac=1 / ref=3 / deblock=1:0:0 / analyse=0x1:0x111 / me=hex / subme=7 / psy=1 / psy_rd=1.00:0.00 / mixed_ref=1 / me_range=16 / chroma_me=1 / trellis=1 / 8x8dct=0 / cqm=0 / deadzone=21,11 / fast_pskip=1 / chroma_qp_offset=-2 / threads=18 / lookahead_threads=3 / sliced_threads=0 / nr=0 / decimate=1 / interlaced=0 / bluray_compat=0 / constrained_intra=0 / bframes=3 / b_pyramid=2 / b_adapt=1 / b_bias=0 / direct=1 / weightb=1 / open_gop=0 / weightp=2 / keyint=240 / keyint_min=1 / scenecut=40 / intra_refresh=0 / rc_lookahead=40 / rc=crf / mbtree=1 / crf=20.0 / qcomp=0.60 / qpmin=0 / qpmax=69 / qpstep=4 / ip_ratio=1.40 / aq=1:1.50
Дата кодирования : UTC 2018-10-20 15:33:51
Дата пометки : UTC 2018-10-19 22:34:17
Цветовой диапазон : Limited
Основные цвета : BT.709
Характеристики трансфера : BT.709
Коэффициенты матрицы : BT.709

Аудио #1
Идентификатор : 2
Формат : AAC
Формат/Информация : Advanced Audio Codec
Профиль формата : LC
Идентификатор кодека : 40
Продолжительность : 23 м.
Вид битрейта : Переменный
Битрейт : 192 Кбит/сек
Максимальный битрейт : 195 Кбит/сек
Каналы : 2 канала
Расположение каналов : Front: L R
Частота : 48,0 КГц
Метод сжатия : С потерями
Размер потока : 32,5 Мбайт (9%)
Заголовок : NAZEL & FREYA
Язык : Russian
Дата кодирования : UTC 2018-10-19 22:34:09
Дата пометки : UTC 2018-10-19 22:34:17

Аудио #2
Идентификатор : 3
Формат : AAC
Формат/Информация : Advanced Audio Codec
Профиль формата : LC
Идентификатор кодека : 40
Продолжительность : 24 м.
Вид битрейта : Переменный
Битрейт : 192 Кбит/сек
Максимальный битрейт : 273 Кбит/сек
Каналы : 2 канала
Расположение каналов : Front: L R
Частота : 48,0 КГц
Метод сжатия : С потерями
Размер потока : 32,8 Мбайт (9%)
Язык : Japanese
Дата кодирования : UTC 2018-10-19 22:34:10
Дата пометки : UTC 2018-10-19 22:34:17
Список серий01. Преисподняя
02. Дьявольское древо
03. Краевой хребет
04. Отправление
05. Океанская черепаха
06. Проект Алисизация
07. Академия искусства меча
08. Гордость мечника
09. Честь дворянина
10. Индекс Табу
11. Центральный собор

Скриншоты

x

Не пропустите

О моём перерождении в слизь / Tensei Shitara Slime Datta Ken [01-12 из 24] (2018) WEBRip 1080p от AniDUB | L2

СКАЧАТЬ TORRENT ФАЙЛ Информация о фильме Название: О моём перерождении в слизь Оригинальное название: Tensei ...