Главная » Видео » Аниме » Любовь похожа на прошедший дождь / Koi wa Ameagari no You ni [S01] (2018) WEBRip 720p | KANSAI, AniDub

Любовь похожа на прошедший дождь / Koi wa Ameagari no You ni [S01] (2018) WEBRip 720p | KANSAI, AniDub

СКАЧАТЬ TORRENT ФАЙЛ

Информация о фильме
Название: Любовь похожа на прошедший дождь
Оригинальное название: Koi wa Ameagari no You ni
Год выхода: 2018
Жанр: романтика, повседневность
Режиссер: Ватанабэ Аюму
Художник: Ёсихара Сюнъитиро, Аоки Каору
В ролях: Ватабэ Саюми, Хирата Хироаки, Миядзима Эми, Фукухара Харука, Икэда Дзюнъя, Маэно Томоаки
О фильме:
Тачибана Акира – резкая и холодная старшеклассница, подрабатывающая после занятий официанткой в семейном ресторане. Так уж вышло, что она тайно влюблена в своего начальника, 45-летнего Масами Кондо, который и не подозревает о чувствах девушки, считая, что та его презирает. Пока все видят в управляющем жалкого подлизу, Акира замечает только его лучшие черты.
После одного происшествия на работе, девушка понимает, что больше не может сдерживать свои чувства. Решится ли она наконец рассказать ему о них?


World Art | MAL

Страна: Япония
Студия: Wit Studio
Продолжительность: 00:22:55
Язык: Русский, Японский
Перевод: Любительский (многоголосый, закадровый), Любительский (двухголосый, закадровый)

Файл
Качество: WEBRip
Формат: MKV
Кодек: H.264
Аудио кодек: AAC
Видео: 1280×720, 23.976 fps, 1600 kbps
Аудио RUS: 48.0 kHz, AAC, 2 ch, 192 kbps — KANSAI
Аудио RUS: 48.0 kHz, AAC, 2 ch, 192 kbps — AniDub
Аудио JAP: 48.0 kHz, AAC, 2 ch, 128 kbps
Субтитры: русские (встроенные полный перевод, ASS) — laci & Благодир Юрий

Озвучка


Список серий01. Звук дождя
02. Капли дождя на зелёной листве
03. Слезы ручьем
04. Легкий дождь
05. Запах дождя
06. Мелкий дождь
07. Проливной дождь
08. Тихий дождь
09. Дождь скорби
10. Проливной дождь
11. Короткий ливень
12. Конец сезона дождей
MediaInfoGeneral
Format : Matroska
Format version : Version 4 / Version 2
File size : 339 MiB
Duration : 22 min
Overall bit rate mode : Variable
Overall bit rate : 2 067 kb/s
Encoded date : UTC 2018-06-12 07:17:28
Writing application : mkvmerge v8.3.0 ('Over the Horizon') 64bit
Writing library : libebml v1.3.1 + libmatroska v1.4.2

Video
ID : 1
Format : AVC
Format/Info : Advanced Video Codec
Format profile : High@L3.1
Format settings, CABAC : Yes
Format settings, ReFrames : 5 frames
Codec ID : V_MPEG4/ISO/AVC
Duration : 22 min
Bit rate mode : Variable
Bit rate : 1 557 kb/s
Maximum bit rate : 4 500 kb/s
Width : 1 280 pixels
Height : 720 pixels
Display aspect ratio : 16:9
Frame rate mode : Constant
Frame rate : 23.976 (24000/1001) FPS
Color space : YUV
Chroma subsampling : 4:2:0
Bit depth : 8 bits
Scan type : Progressive
Bits/(Pixel*Frame) : 0.070
Stream size : 255 MiB (75%)
Default : Yes
Forced : No
Color range : Limited
Color primaries : BT.709
Transfer characteristics : BT.709
Matrix coefficients : BT.709

Audio #1
ID : 2
Format : AAC
Format/Info : Advanced Audio Codec
Format profile : LC
Codec ID : A_AAC
Duration : 22 min
Bit rate : 192 kb/s
Channel(s) : 2 channels
Channel positions : Front: L R
Sampling rate : 48.0 kHz
Frame rate : 46.875 FPS (1024 spf)
Compression mode : Lossy
Stream size : 31.0 MiB (9%)
Title : KANSAI
Language : Russian
Default : Yes
Forced : No

Audio #2
ID : 3
Format : AAC
Format/Info : Advanced Audio Codec
Format profile : LC
Codec ID : A_AAC
Duration : 22 min
Bit rate : 192 kb/s
Channel(s) : 2 channels
Channel positions : Front: L R
Sampling rate : 48.0 kHz
Frame rate : 46.875 FPS (1024 spf)
Compression mode : Lossy
Stream size : 31.5 MiB (9%)
Title : AniDub
Language : Russian
Default : No
Forced : No

Audio #3
ID : 4
Format : AAC
Format/Info : Advanced Audio Codec
Format profile : LC
Codec ID : A_AAC
Duration : 22 min
Bit rate : 125 kb/s
Channel(s) : 2 channels
Channel positions : Front: L R
Sampling rate : 48.0 kHz
Frame rate : 46.875 FPS (1024 spf)
Compression mode : Lossy
Stream size : 20.5 MiB (6%)
Title : Original
Language : Japanese
Default : No
Forced : No

Text
ID : 5
Format : ASS
Codec ID : S_TEXT/ASS
Codec ID/Info : Advanced Sub Station Alpha
Duration : 22 min
Bit rate : 142 b/s
Count of elements : 335
Compression mode : Lossless
Stream size : 23.6 KiB (0%)
Title : Полные субтитры — laci & Благодир Юрий
Language : Russian
Default : Yes
Forced : No

x

Не пропустите

Критики назвали лучшие российские сериалы года

Сайт Кино-театр.ру по традиции в конце года попросил ведущих российских кино- и телекритиков выбрать лучшие ...