Главная » Видео » Аниме » Индекс Волшебства / Toaru Majutsu no Index III [03х01 из 26] (2018) HDTVRip 720p от AniMedia | L2

Индекс Волшебства / Toaru Majutsu no Index III [03х01 из 26] (2018) HDTVRip 720p от AniMedia | L2

СКАЧАТЬ TORRENT ФАЙЛ

Информация о фильме
Название: Индекс Волшебства
Оригинальное название: Toaru Majutsu no Index III (A Certain Magical Index III)
Страна: Япония

Год выхода: 2018
Жанр: Приключения, комедия, мистика, фантастика
Режиссер: Хироси Нисикиори
Автор оригинала: Камати Кадзума / 鎌池和馬

О фильме: В альтернативном мире науки и магии где-то в Южной Японии все так же стоит чудесный город, где живет Тома Камидзё, который спас мир, но потерял память. Впрочем, парень мог забыть о своих подвигах или о школьном задании на лето, но никак не о шумном создании в белом, которое поселилось в его скромной квартирке. Разумеется, Индекс снова втягивает Тому в историю, где фигурируют запретные книги, английские рыцари, римские католики и японские заговорщики, а мы встречаемся со старыми знакомыми из предыдущих сезонов. А пока Тома проклинает свое вечное невезение, в предместьях Академгорода христианские маги схватываются с местными экуменистами, Мисаки и Акселератор не могут разобраться в собственных чувствах, а тайно прибывшая из Англии архиепископ Лаура мечтает сходить в японскую баню. Грядут новые битвы, зашевелились местные тайные союзы эсперов, да и ученые Академии, явно не отягощенные моралью, предвкушают новые эксперименты. И только свежий взгляд на мир сериала помогает понять, что приключения героев – лишь часть большой картины «нового творения», в которой кое-кто из создателей Академии решил поколебать сами основы мироздания!

Студия:

Продолжительность: ~ 00:24:00
Перевод: Любительский двухголосый
Озвучили: NAZEL & LolAlice
Тайминг и сведение звука: AngryBobrik
Сборка контейнера: Eugeo

Файл
Формат: mp4
Качество: HDTVRip 720p
Видео: H.264; 1280×720; ~ 1800 Kbps, 23.976fps; (8 bit)
Аудио 1: AAC 48000 Hz, 2.0, 192 kbps Язык Русский
Аудио 2: AAC 48000 Hz, 2.0, 192 kbps Язык Японский
Субтитры: (внешние ASS) Язык субтитров русский ; Перевод: Sunsetblink

Инфо-файл
Общее
Полное имя : F:KinozalToaru Majutsu no Index III[AniMedia.TV]Toaru Majutsu no Index III[01]_[NAZEL & LolAlice].ass
Размер файла : 39,1 Кбайт

Общее
Полное имя : F:KinozalToaru Majutsu no Index III[AniMedia.TV]Toaru Majutsu no Index III[01]_[NAZEL & LolAlice].mp4
Формат : MPEG-4
Профиль формата : Base Media
Идентификатор кодека : isom
Размер файла : 380 Мбайт
Продолжительность : 24 м.
Режим общего битрейта : Переменный
Общий поток : 2214 Кбит/сек
Дата кодирования : UTC 2018-10-05 17:48:23
Дата пометки : UTC 2018-10-05 17:48:23
Программа кодирования : Yamb 2.1.0.0 [http://yamb.unite-video.com]

Видео
Идентификатор : 1
Формат : AVC
Формат/Информация : Advanced Video Codec
Профиль формата : Main@L4.1
Параметр CABAC формата : Да
Параметр ReFrames формата : 4 кадра
Идентификатор кодека : avc1
Идентификатор кодека/Информация : Advanced Video Coding
Продолжительность : 24 м.
Битрейт : 1827 Кбит/сек
Максимальный битрейт : 20,7 Мбит/сек
Ширина : 1280 пикселей
Высота : 720 пикселей
Соотношение сторон : 16:9
Режим частоты кадров : Постоянный
Частота кадров : 23,976 кадра/сек
Цветовое пространство : YUV
Субдискретизация насыщенности : 4:2:0
Битовая глубина : 8 бит
Тип развёртки : Прогрессивная
Бит/(Пиксели*Кадры) : 0.083
Размер потока : 314 Мбайт (83%)
Библиотека кодирования : x264 core 157 r2935 545de2f
Настройки программы : cabac=1 / ref=3 / deblock=1:0:0 / analyse=0x1:0x111 / me=hex / subme=7 / psy=1 / psy_rd=1.00:0.00 / mixed_ref=1 / me_range=16 / chroma_me=1 / trellis=1 / 8x8dct=0 / cqm=0 / deadzone=21,11 / fast_pskip=1 / chroma_qp_offset=-2 / threads=18 / lookahead_threads=3 / sliced_threads=0 / nr=0 / decimate=1 / interlaced=0 / bluray_compat=0 / constrained_intra=0 / bframes=3 / b_pyramid=2 / b_adapt=1 / b_bias=0 / direct=1 / weightb=1 / open_gop=0 / weightp=2 / keyint=240 / keyint_min=1 / scenecut=40 / intra_refresh=0 / rc_lookahead=40 / rc=crf / mbtree=1 / crf=20.0 / qcomp=0.60 / qpmin=0 / qpmax=69 / qpstep=4 / ip_ratio=1.40 / aq=1:1.50
Дата кодирования : UTC 2018-10-05 13:33:19
Дата пометки : UTC 2018-10-05 17:48:33
Цветовой диапазон : Limited
Основные цвета : BT.709
Характеристики трансфера : BT.709
Коэффициенты матрицы : BT.709

Аудио #1
Идентификатор : 2
Формат : AAC
Формат/Информация : Advanced Audio Codec
Профиль формата : LC
Идентификатор кодека : 40
Продолжительность : 23 м.
Вид битрейта : Переменный
Битрейт : 192 Кбит/сек
Максимальный битрейт : 195 Кбит/сек
Каналы : 2 канала
Расположение каналов : Front: L R
Частота : 48,0 КГц
Метод сжатия : С потерями
Размер потока : 32,5 Мбайт (9%)
Заголовок : NAZEL & LolAlice
Язык : Russian
Дата кодирования : UTC 2018-10-05 17:48:30
Дата пометки : UTC 2018-10-05 17:48:33

Аудио #2
Идентификатор : 3
Формат : AAC
Формат/Информация : Advanced Audio Codec
Профиль формата : LC
Идентификатор кодека : 40
Продолжительность : 24 м.
Вид битрейта : Переменный
Битрейт : 192 Кбит/сек
Максимальный битрейт : 252 Кбит/сек
Каналы : 2 канала
Расположение каналов : Front: L R
Частота : 48,0 КГц
Метод сжатия : С потерями
Размер потока : 32,8 Мбайт (9%)
Язык : Japanese
Дата кодирования : UTC 2018-10-05 17:48:31
Дата пометки : UTC 2018-10-05 17:48:33
Список серий01. Хаос

Скриншоты

x

Не пропустите

Убийца гоблинов / Goblin Slayer [01-02 из 12] (2018) HDTVRip 720p от AniDUB | L2

СКАЧАТЬ TORRENT ФАЙЛ Информация о фильме Название: Убийца гоблинов Оригинальное название: Goblin Slayer Страна: Япония ...