Главная » Видео » Аниме » Индекс волшебства III / Toaru Majutsu no Index III [S03x01 из 26] (2018) WEBRip 720p | Persona99

Индекс волшебства III / Toaru Majutsu no Index III [S03x01 из 26] (2018) WEBRip 720p | Persona99

СКАЧАТЬ TORRENT ФАЙЛ

Информация о фильме

Название : Индекс волшебства III
Оригинальное название : Toaru Majutsu no Index III / A Certain Magical Index III / とある魔術の禁書目録III
Год выхода : 2018
Тип: TV
Жанр : Экшен, Фантастика
Режиссер : Хироси Нисикиори

Описание : На востоке от столицы Японии Токио располагается большой город Академград. Назван он так потому, что 80 процентов его жителей — это студенты и школьники, а всего живёт там свыше двух миллионов человек. В реальности этого аниме существуют не только обычные люди, но и обладатели сверхспособностей, и дети, имеющие какую-то суперсилу, обучаются именно в Академграде. Там проживает и наш главный герой Тома Камидзё, обладающий силой «Нарушитель воображения”, которая уничтожает любую способность другого человека, направленную на Тому.
Однажды Тома повстречал странную девушку в одежде монашки. Имя у неё не менее чудаковатое — Индекс, сама она владеет магией, а в голове у Индекс содержится сто три тысячи запрещённых церковью гримуаров. Из-за такого количества информации она стала весьма ценным экземпляром, которым не прочь воспользоваться в нехороших целях. В третьем сезоне нас ждёт продолжение похождений Томы и Индекс и новые приключения в безумном мире сверхспособностей.

world-art | MyAnimeList | Офиц. Сайт

Страна : Япония
Производство : J.C Staff
Продолжительность : 26 эпизодов по ~00:24:00 минуты
Перевод: Любительский (одноголосый, закадровый)

Перевод:

Русские субтитры: SovetRomantica
Переводчик: Magi-kun, Yamada
Редактор: AleksXAA

Озвучка: Get Smart Group
— одноголосая (жен.): Persona99

Автор рипа: Erai-raws

Файл
Качество: WEBRip
Тип релиза: Без хардсаба
Формат видео: MKV
Наличие линковки: Нет

Видео: AVC, 1280×720 (16:9), 2082 kbps, 23.976 fps, 8bit
Аудио 1: Русский, AC3, 192 Кбит/с, 48.0 kHz, 2 ch (в составе контейнера)
Аудио 2: Японский, AС3, 192 Кбит/с, 48.0 kHz, 2 ch (в составе контейнера)

Субтитры (ASS): Русские (внешними файлами)

Список эпизодов
01. Хаос / Chaos

Скриншоты

MediaInfo

General
Unique ID : 228858153516974711004222524147502293160 (0xAC2C7A2268E5FC818E143186D7C220A8)
Complete name : E:/Torrent_2/Toaru Majutsu no Index III (2018, AVC WEBRip -720p, RUS JAP+SUB)/[Erai-raws] Toaru Majutsu no Index III — 01 [720p] [Persona99.GSG].mkv
Format : Matroska
Format version : Version 2
File size : 427 MiB
Duration : 23mn 43s
Overall bit rate : 2 516 Kbps
Encoded date : UTC 2018-10-11 13:17:50
Writing application : mkvmerge v5.5.0 ('Healer') built on Apr 6 2012 21:43:24
Writing library : libebml v1.2.3 + libmatroska v1.3.0

Video #1
ID : 1
Format : AVC
Format/Info : Advanced Video Codec
Format profile : High@L4.0
Format settings, CABAC : Yes
Format settings, ReFrames : 6 frames
Codec ID : V_MPEG4/ISO/AVC
Duration : 23mn 43s
Bit rate : 2 082 Kbps
Width : 1 280 pixels
Height : 720 pixels
Display aspect ratio : 16:9
Frame rate mode : Constant
Frame rate : 23.976 fps
Color space : YUV
Chroma subsampling : 4:2:0
Bit depth : 8 bits
Scan type : Progressive
Bits/(Pixel*Frame) : 0.094
Stream size : 353 MiB (83%)
Writing library : x264 core 142
Encoding settings : cabac=1 / ref=6 / deblock=1:1:1 / analyse=0x3:0x113 / me=umh / subme=8 / psy=1 / psy_rd=0.40:0.00 / mixed_ref=1 / me_range=16 / chroma_me=1 / trellis=1 / 8x8dct=1 / cqm=0 / deadzone=21,11 / fast_pskip=1 / chroma_qp_offset=-2 / threads=10 / lookahead_threads=1 / sliced_threads=0 / nr=0 / decimate=1 / interlaced=0 / bluray_compat=0 / constrained_intra=0 / bframes=3 / b_pyramid=2 / b_adapt=2 / b_bias=0 / direct=3 / weightb=1 / open_gop=0 / weightp=2 / keyint=48 / keyint_min=25 / scenecut=0 / intra_refresh=0 / rc_lookahead=48 / rc=crf / mbtree=1 / crf=15.0 / qcomp=0.60 / qpmin=0 / qpmax=69 / qpstep=4 / vbv_maxrate=4000 / vbv_bufsize=6000 / crf_max=0.0 / nal_hrd=none / filler=0 / ip_ratio=1.40 / aq=1:0.60
Language : Japanese
Default : Yes
Forced : No

Audio #2
ID : 2
Format : AC-3
Format/Info : Audio Coding 3
Mode extension : CM (complete main)
Format settings, Endianness : Big
Codec ID : A_AC3
Duration : 23mn 43s
Bit rate mode : Constant
Bit rate : 192 Kbps
Channel(s) : 2 channels
Channel positions : Front: L R
Sampling rate : 48.0 KHz
Bit depth : 16 bits
Compression mode : Lossy
Stream size : 32.6 MiB (8%)
Title : Persona99 [Get Smart Group] Language : Russian
Default : Yes
Forced : No

Audio #3
ID : 3
Format : AC-3
Format/Info : Audio Coding 3
Mode extension : CM (complete main)
Format settings, Endianness : Big
Codec ID : A_AC3
Duration : 23mn 43s
Bit rate mode : Constant
Bit rate : 192 Kbps
Channel(s) : 2 channels
Channel positions : Front: L R
Sampling rate : 48.0 KHz
Bit depth : 16 bits
Compression mode : Lossy
Stream size : 32.6 MiB (8%)
Language : Japanese
Default : No
Forced : No

x

Не пропустите

Макс Глебов — Бригадный генерал 3. Рубеж атаки (2018) МР3

СКАЧАТЬ TORRENT ФАЙЛ Название: Рубеж атаки Автор: Макс Глебов Год выпуска: 2018 Жанр: Фантастика, аудиокнига ...