Главная » Видео » Аниме » Джульетта из школы-интерната / Kishuku Gakkou no Juliet [01-11 из 12] (2018) HDTVRip 720p от AniMedia | L2

Джульетта из школы-интерната / Kishuku Gakkou no Juliet [01-11 из 12] (2018) HDTVRip 720p от AniMedia | L2

СКАЧАТЬ TORRENT ФАЙЛ

Информация о фильме
Название: Джульетта Из Школы-Интерната
Оригинальное название: Kishuku Gakkou no Juliet (Boarding School Juliet)
Страна: Япония

Год выхода: 2018
Жанр: Романтика, комедия, школа
Режиссер: Сэйки Такуно
Автор оригинала: Канэда Ёсукэ / 金田陽介

О фильме: Школа-интернат Григио. Все учащиеся прибыли из двух враждующих стран и живут в отдельных друг от друга общежитиях. Инузука и Персия — главы враждующих общежитий, тайно влюблённые друг в друга. Теперь им придётся хранить свои отношения в тайне от других, иначе беды не миновать.

Студия:

Продолжительность: ~ 00:24:00
Перевод: Любительский двухголосый
Озвучили: Morin & KingMaster
Тайминг и сведение звука: KingMaster
Сборка контейнера: Eugeo

Файл
Формат: mp4
Качество: HDTVRip 720p
Видео: H.264; 1280×720; ~ 2800 Kbps, 23.976fps; (8 bit)
Аудио 1: AAC 48000 Hz, 2.0, 192 kbps Язык Русский
Аудио 2: AAC 48000 Hz, 2.0, 192 kbps Язык Японский
Субтитры: (внешние ASS) Язык субтитров русский ; Перевод: Mareline (RisensTeam)

Инфо-файл
Общее
Полное имя : F:AnimeKishuku_Gakkou_no_Juliet_[AniMedia.TV]Kishuku_Gakkou_no_Juliet_[01]_[Morin & KingMaster].ass
Размер файла : 39,4 Кбайт

Общее
Полное имя : F:AnimeKishuku_Gakkou_no_Juliet_[AniMedia.TV]Kishuku_Gakkou_no_Juliet_[01]_[Morin & KingMaster].mp4
Формат : MPEG-4
Профиль формата : Base Media
Идентификатор кодека : isom
Размер файла : 564 Мбайт
Продолжительность : 24 м.
Режим общего битрейта : Переменный
Общий поток : 3224 Кбит/сек
Дата кодирования : UTC 2018-10-07 09:20:30
Дата пометки : UTC 2018-10-07 09:20:30
Программа кодирования : Yamb 2.1.0.0 [http://yamb.unite-video.com]

Видео
Идентификатор : 1
Формат : AVC
Формат/Информация : Advanced Video Codec
Профиль формата : High@L4.1
Параметр CABAC формата : Да
Параметр ReFrames формата : 4 кадра
Идентификатор кодека : avc1
Идентификатор кодека/Информация : Advanced Video Coding
Продолжительность : 24 м.
Битрейт : 2834 Кбит/сек
Максимальный битрейт : 15,0 Мбит/сек
Ширина : 1280 пикселей
Высота : 720 пикселей
Соотношение сторон : 16:9
Режим частоты кадров : Постоянный
Частота кадров : 23,976 кадра/сек
Цветовое пространство : YUV
Субдискретизация насыщенности : 4:2:0
Битовая глубина : 8 бит
Тип развёртки : Прогрессивная
Бит/(Пиксели*Кадры) : 0.128
Размер потока : 496 Мбайт (88%)
Заголовок : 264
Библиотека кодирования : x264 core 129 r2245+729M 1a52e03
Настройки программы : cabac=1 / ref=4 / deblock=1:1:-1 / analyse=0x3:0x113 / me=umh / subme=9 / psy=1 / fade_compensate=0.00 / psy_rd=1.00:0.00 / mixed_ref=1 / me_range=24 / chroma_me=1 / trellis=2 / 8x8dct=1 / cqm=0 / deadzone=21,11 / fast_pskip=1 / chroma_qp_offset=-2 / threads=8 / lookahead_threads=1 / sliced_threads=0 / nr=0 / decimate=1 / interlaced=0 / bluray_compat=0 / constrained_intra=0 / fgo=0 / bframes=9 / b_pyramid=2 / b_adapt=2 / b_bias=0 / direct=1 / weightb=1 / open_gop=0 / weightp=2 / keyint=240 / keyint_min=24 / scenecut=40 / intra_refresh=0 / rc=crf / mbtree=0 / crf=18.5 / qcomp=0.72 / qpmin=0 / qpmax=69 / qpstep=4 / ip_ratio=1.40 / pb_ratio=1.30 / aq=1:0.85
Дата кодирования : UTC 2018-10-06 07:46:52
Дата пометки : UTC 2018-10-07 09:20:39
Цветовой диапазон : Limited
Основные цвета : BT.709
Характеристики трансфера : BT.709
Коэффициенты матрицы : BT.709

Аудио #1
Идентификатор : 2
Формат : AAC
Формат/Информация : Advanced Audio Codec
Профиль формата : LC
Идентификатор кодека : 40
Продолжительность : 24 м.
Вид битрейта : Переменный
Битрейт : 192 Кбит/сек
Максимальный битрейт : 200 Кбит/сек
Каналы : 2 канала
Расположение каналов : Front: L R
Частота : 48,0 КГц
Метод сжатия : С потерями
Размер потока : 33,6 Мбайт (6%)
Заголовок : LolAlice & KingMaster
Язык : Russian
Дата кодирования : UTC 2018-10-07 09:20:37
Дата пометки : UTC 2018-10-07 09:20:39

Аудио #2
Идентификатор : 3
Формат : AAC
Формат/Информация : Advanced Audio Codec
Профиль формата : LC
Идентификатор кодека : 40
Продолжительность : 24 м.
Вид битрейта : Переменный
Битрейт : 192 Кбит/сек
Максимальный битрейт : 224 Кбит/сек
Каналы : 2 канала
Расположение каналов : Front: L R
Частота : 48,0 КГц
Метод сжатия : С потерями
Размер потока : 33,6 Мбайт (6%)
Язык : Japanese
Дата кодирования : UTC 2018-10-07 09:20:38
Дата пометки : UTC 2018-10-07 09:20:39

Общее
Полное имя : F:AnimeKishuku_Gakkou_no_Juliet_[AniMedia.TV]Kishuku_Gakkou_no_Juliet_[02]_[Morin & KingMaster].ass
Размер файла : 39,8 Кбайт

Общее
Полное имя : F:AnimeKishuku_Gakkou_no_Juliet_[AniMedia.TV]Kishuku_Gakkou_no_Juliet_[02]_[Morin & KingMaster].mp4
Формат : MPEG-4
Профиль формата : Base Media
Идентификатор кодека : isom
Размер файла : 520 Мбайт
Продолжительность : 24 м.
Режим общего битрейта : Переменный
Общий поток : 2976 Кбит/сек
Дата кодирования : UTC 2018-10-12 21:14:23
Дата пометки : UTC 2018-10-12 21:14:23
Программа кодирования : Yamb 2.1.0.0 [http://yamb.unite-video.com]

Видео
Идентификатор : 1
Формат : AVC
Формат/Информация : Advanced Video Codec
Профиль формата : High@L4.1
Параметр CABAC формата : Да
Параметр ReFrames формата : 4 кадра
Идентификатор кодека : avc1
Идентификатор кодека/Информация : Advanced Video Coding
Продолжительность : 24 м.
Битрейт : 2587 Кбит/сек
Максимальный битрейт : 13,6 Мбит/сек
Ширина : 1280 пикселей
Высота : 720 пикселей
Соотношение сторон : 16:9
Режим частоты кадров : Постоянный
Частота кадров : 23,976 кадра/сек
Цветовое пространство : YUV
Субдискретизация насыщенности : 4:2:0
Битовая глубина : 8 бит
Тип развёртки : Прогрессивная
Бит/(Пиксели*Кадры) : 0.117
Размер потока : 452 Мбайт (87%)
Заголовок : 264
Библиотека кодирования : x264 core 129 r2245+729M 1a52e03
Настройки программы : cabac=1 / ref=4 / deblock=1:1:-1 / analyse=0x3:0x113 / me=umh / subme=9 / psy=1 / fade_compensate=0.00 / psy_rd=1.00:0.00 / mixed_ref=1 / me_range=24 / chroma_me=1 / trellis=2 / 8x8dct=1 / cqm=0 / deadzone=21,11 / fast_pskip=1 / chroma_qp_offset=-2 / threads=8 / lookahead_threads=1 / sliced_threads=0 / nr=0 / decimate=1 / interlaced=0 / bluray_compat=0 / constrained_intra=0 / fgo=0 / bframes=9 / b_pyramid=2 / b_adapt=2 / b_bias=0 / direct=1 / weightb=1 / open_gop=0 / weightp=2 / keyint=240 / keyint_min=24 / scenecut=40 / intra_refresh=0 / rc=crf / mbtree=0 / crf=18.5 / qcomp=0.72 / qpmin=0 / qpmax=69 / qpstep=4 / ip_ratio=1.40 / pb_ratio=1.30 / aq=1:0.85
Дата кодирования : UTC 2018-10-13 15:46:12
Дата пометки : UTC 2018-10-12 21:14:40
Цветовой диапазон : Limited
Основные цвета : BT.709
Характеристики трансфера : BT.709
Коэффициенты матрицы : BT.709

Аудио #1
Идентификатор : 2
Формат : AAC
Формат/Информация : Advanced Audio Codec
Профиль формата : LC
Идентификатор кодека : 40
Продолжительность : 24 м.
Вид битрейта : Переменный
Битрейт : 192 Кбит/сек
Максимальный битрейт : 200 Кбит/сек
Каналы : 2 канала
Расположение каналов : Front: L R
Частота : 48,0 КГц
Метод сжатия : С потерями
Размер потока : 33,6 Мбайт (6%)
Заголовок : Morin & KingMaster
Язык : Russian
Дата кодирования : UTC 2018-10-12 21:14:30
Дата пометки : UTC 2018-10-12 21:14:40

Аудио #2
Идентификатор : 3
Формат : AAC
Формат/Информация : Advanced Audio Codec
Профиль формата : LC
Идентификатор кодека : 40
Продолжительность : 24 м.
Вид битрейта : Переменный
Битрейт : 192 Кбит/сек
Максимальный битрейт : 228 Кбит/сек
Каналы : 2 канала
Расположение каналов : Front: L R
Частота : 48,0 КГц
Метод сжатия : С потерями
Размер потока : 33,5 Мбайт (6%)
Язык : Japanese
Дата кодирования : UTC 2018-10-12 21:14:31
Дата пометки : UTC 2018-10-12 21:14:40
Список серий01. Romio Inuzuka and Juliet Persia
02. Rosario and Juliet
03. Romio and Princess Char
04. Romio and Hasuki
05. Romio and the Sports Festival
06. Juliet and the Sports Festival
07. Romio and Juliet and the Sports Festival
08. Romio and the Prefect
09. Romio and Char and the Present
10. Romio and Airu
11. Romio and Juliet and the Birthday

Скриншоты

x

Не пропустите

Этот глупый свин не понимает мечту девочки-зайки / Seishun Buta Yarou wa Bunny Girl Senpai no Yume wo Minai [01-11 из 12] (2018) WEBRip 1080p | AniFilm

СКАЧАТЬ TORRENT ФАЙЛ Оригинальное название: Seishun Buta Yarou wa Bunny Girl Senpai no Yume wo ...