Главная » Видео » Аниме » Боруто: Новое поколение Наруто / Boruto: Naruto Next Generations [65-73] (2018) WEBRip 720p | ColdFilm

Боруто: Новое поколение Наруто / Boruto: Naruto Next Generations [65-73] (2018) WEBRip 720p | ColdFilm

СКАЧАТЬ TORRENT ФАЙЛ

Информация о фильме
Название: Боруто: Новое Поколение
Оригинальное название: Boruto: Naruto Next Generations
Год выпуска: 2018
Жанр: Приключения, боевые искусства, сёнэн, мультсериал
Режиссер: Нориюки Абэ
В ролях: Юко Сампэй, Кокоро Кикути, Рюити Кидзима, Рёко Сираиси, Кэнсё Оно, Ацуси Абэ, Дзюнко Такэути, Синдзи Кавада, Саори Хаями, Нана Мидзуки

О фильме:
Главным героем теперь будет Узумаки Боруто. Являясь сыном Седьмого Хокаге, он унаследовал энергичность и сильных характер своего отца, однако сам по себе является непоседой, бунтарем и хулиганом. Боруто часто прогуливает уроки в Академии Ниндзя и совершает различные пакости. Не смотря на это, имеет много друзей, которые считает его настоящим талантом и гением. В свою очередь, он относится к друзьям с большой добротой. Имея неугомонный характер, Боруто крайне сложно работать в команде. И уже первое задание для него становится настоящей проблемой, так как он не сотрудничает с другими ниндзя, а пытается сделать все сам. Но позже он встречает таинственного шиноби и его жизнь сильно меняется. Встреченный им враг является главным противником Учихи Саске — лучшего друга Наруто, который ушел много лет назад в путешествие. После чего Учиха Саске предлагает стать наставником Боруто…


Страна: Япония
Студия: Studio Pierrot
Продолжительность: 9 x ~ 00:24:00
Перевод: Любительский многоголосый [ColdFilm]

Файл
Кодек: x264 (AVC)
Качество: WEBRip 720p
Видео: 3500 Кбит/с, 1280×720, 25.000 fps
Аудио: Русский (AC3, 2 ch, 192 Кбит/с)

Скриншоты


MIGeneral
Unique ID : 184405945310527903581155531972806760037 (0x8ABB4B0F21FE97ADBE9FE92821B0D665)
Complete name : Boruto.Naruto.Next.Generations.E65.720p.ColdFilm.mkv
Format : Matroska
Format version : Version 2
File size : 638 MiB
Duration : 24 min 22 s
Overall bit rate : 3 658 kb/s
Encoded date : UTC 2018-07-19 11:46:12 / UTC 2017-11-20 18:25:40
Writing application : mkvmerge v3.3.0 ('Language') built on Mar 24 2010 14:59:24
Writing library : libebml v0.8.0 + libmatroska v0.9.0 / Lavf54.63.104

Video
ID : 1
Format : AVC
Format/Info : Advanced Video Codec
Format profile : Main@L3.1
Format settings : CABAC / 1 Ref Frames
Format settings, CABAC : Yes
Format settings, ReFrames : 1 frame
Codec ID : V_MPEG4/ISO/AVC
Duration : 24 min 22 s
Bit rate : 3 500 kb/s
Width : 1 280 pixels
Height : 720 pixels
Display aspect ratio : 16:9
Frame rate mode : Constant
Frame rate : 25.000 FPS
Color space : YUV
Chroma subsampling : 4:2:0
Bit depth : 8 bits
Scan type : Progressive
Bits/(Pixel*Frame) : 0.152
Stream size : 591 MiB (93%)
Writing library : x264 core 129
Default : No
Forced : No

Audio
ID : 2
Format : AC-3
Format/Info : Audio Coding 3
Codec ID : A_AC3
Duration : 24 min 22 s
Bit rate mode : Constant
Bit rate : 192 kb/s
Channel(s) : 2 channels
Channel positions : Front: L R
Sampling rate : 48.0 kHz
Frame rate : 31.250 FPS (1536 SPF)
Bit depth : 16 bits
Compression mode : Lossy
Stream size : 33.5 MiB (5%)
Service kind : Complete Main
Default : Yes
Forced : No

x

Не пропустите

The Sims 4: Deluxe Edition [v 1.47.49.1020] (2014) PC | RePack от qoob

СКАЧАТЬ TORRENT ФАЙЛ Информация: Год выпуска: 2014 Жанр: Simulator Разработчик: The Sims Studio Издатель: Electronic ...