Главная » Музыка » Золотой Граммофон 2016. XXI Церемония вручения Премии [полная версия 19.11] (2016) WEB-DLRip | by music80

Золотой Граммофон 2016. XXI Церемония вручения Премии [полная версия 19.11] (2016) WEB-DLRip | by music80

СКАЧАТЬ TORRENT ФАЙЛ

Информация о фильме
Оригинальное название: Золотой Граммофон 2016. XXI Церемонию вручения Премии (полная версия)
Год выхода: 2016
Жанр: Концерт, шоу.

О фильме:
XXI Церемонию вручения национальной музыкальной Премии «Золотой Граммофон» в реальном времени смогли увидеть не только наши соотечественники из разных регионов России, дальнего и ближнего зарубежья, но и все поклонники «Русского Радио» в любой части света. Таким образом, одновременно со зрителями «Золотого Граммофона», которые будут находиться в зрительном зале, имена обладателей драгоценных статуэток. 19 ноября в СК «Олимпийский» состоялось грандиозное шоу с участием лучших артистов уходящего года, чьи песни находились максимальное количество недель в хит-параде «Русского Радио» «Золотой Граммофон». Зрителей ждёт многочасовой концерт с участием более 40 артистов. И только 25 лучших песен получат золотые статуэтки.

Треклист:01. Ленинград — Лабутены
02. Ленинград и Григорий Лепс — Терминатор
03. Григорий Лепс — Я поднимаю руки
04. Григорий Лепс и Ани Лорак — Уходи
05. Егор Крид — Мне нравится
06. Ирина Дубцова — Только не плачь
07. Денис Майданов и Лолита — Територия сердца
08. Серебро — Надо ли… (Моя любовь)
09. Уматурман — Белокурая бестия
10. Ани Лорак — Удержи мое сердце
11. Денис Клявер — Ты и я
12. Лобода — К черту любовь
13. Artik & Asti — Тебе все можно
14. Елена Север — Редкость
15. Стас Костюшкин — Этой ночью
16. Нюша — Целую
17. Лок док — На расстоянии
18. Квинс — Ну и зачем
19. Burito — Мегахит
20. Ева Польна — Мало
21. Игорь Саруханов — Мегамикс (Лучшие хиты)
22. Наргиз — Я не верю тебе
23. Те100стерон — Это не женщина
24. Сати Казанова — Радость привет
25. Валерий Меладзе — Млечный путь
26. Ханна — Амар Хаям
27. Филипп Киркоров — Мир
28. Юлиана Караулова — Неорбитные
29. Митя Фомин — Чужие сны
30. Виктория Дайнеко — Жить в двоем
31. Алексеев — Пьяное солнце
32. Зара — Возвращаюсь домой
33. Любэ и группа Альфа — А зори здесь тихие
34. Владимир — Голивуд
35. MOT — Капкан
36. MOT и Бьянка — Уезжаешь
37. Дима Билан — Неделимые
38. Мария Вебер — Ты лучше
39. Алексей Воробьев — Сумасшедшая
40. Стас Михайлов — Ты все
41. Стас Михайлов и Джиган — Любовь наркоз
42. Сергей Лазавер — Если…
43. DJ Smash — Темные алееи (Хорошо быть рядом)
44. Елка — Грею счастье
45. Николай Басков — Обниму тебя
46. Алла Пугачева — Дай
47. Алла Пугачева — Под одним флагомИнфо-файл:General
Complete name : F:Золотой Граммофон 2016. XXI Церемонию вручения Премии.avi
Format : AVI
Format/Info : Audio Video Interleave
Format profile : OpenDML
File size : 4.90 GiB
Duration : 5h 18mn
Overall bit rate : 2 200 Kbps
Writing application : Lavf54.63.104

Video
ID : 0
Format : xvid
Codec ID : xvid
Duration : 5h 18mn
Bit rate : 2 000 Kbps
Width : 720 pixels
Height : 406 pixels
Display aspect ratio : 16:9
Frame rate : 25.000 fps
Bits/(Pixel*Frame) : 0.274
Stream size : 4.45 GiB (91%)

Audio
ID : 1
Format : AC-3
Format/Info : Audio Coding 3
Mode extension : CM (complete main)
Format settings, Endianness : Big
Codec ID : 2000
Duration : 5h 18mn
Bit rate mode : Constant
Bit rate : 192 Kbps
Channel(s) : 2 channels
Channel positions : Front: L R
Sampling rate : 44.1 KHz
Frame rate : 28.711 fps (1536 spf)
Bit depth : 16 bits
Compression mode : Lossy
Stream size : 438 MiB (9%)
Alignment : Aligned on interleaves
Interleave, duration : 35 ms (0.87 video frame)

Страна: Россия

Файл
Качество: WEB-DLRip
Видео: XviD, 2000 Кбит/с, 720×406
Аудио: AC3, 2 ch, 192 Кбит/с
Продолжительность: 05:18:50

Скриншоты


x

Не пропустите

Malwarebytes AdwCleaner 7.0.0.0 (2017) PC

СКАЧАТЬ TORRENT ФАЙЛ Версия программы: 7.0.0.0 Официальный сайт: ссылка Язык интерфейса: Русский, Английский, и другие ...