Главная » Pop » Владимир Пресняков. Концерт на «Новой волне» (2018) HDTVRip-HEVC 1080p

Владимир Пресняков. Концерт на «Новой волне» (2018) HDTVRip-HEVC 1080p

СКАЧАТЬ TORRENT ФАЙЛ

Исполнитель: Владимир Пресняков
Жанр: POP
Год выпуска: 2018
Продолжительность: 01:05:34

Отдельная благодарность пользователю kuzmichm2196 за исходник.

Формат: MKV
Качество: HDTVRip 1080p HEVC
Видео кодек: H.265
Аудио кодек: AAC
Видео: HEVC/H.265, 1920×1080, ~6 000 Kbps, 25fps
Аудио: AAC, 2 ch, 192 Kbps, 48000Hz

Треклист:01. Хор Академии Игоря Крутого — Спит придорожная трава (Острова)
02. Владимир Пресняков & Burito — Зурбаган 2.0
03. Ани Лорак — Бабушка моя
04. Леонид Агутин — Беспощадная правда (Ты скажи)
05. Юлианна Караулова — Там нет меня
06. Cергей Лазарев — Замок из дождя
07. Анжелика Варум — Мост
08. Артур Пирожков — Стюардесса по имени Жанна
09. Дима Билан — Странник
10. Наталья Подольская — Белый снег
11. Владимир Пресняков — Слушая тишину
12. Григорий Лепс — Два Колумба
13. Григорий Лепс — Аэропорты
14. Александр Иванов и Владимир Пресняков — Я буду помнить …MedaInfoPresnyakov_2018.09.06.mkv
Format : Matroska
Format version : Version 4 / Version 2
File size : 2.88 GiB
Duration : 1 h 5 min
Overall bit rate : 6 280 kb/s
Movie name : Новая волна
Encoded date : UTC 2018-09-15 22:52:22
Writing application : mkvmerge v24.0.0 ('Beyond The Pale') 64-bit
Writing library : libebml v1.3.6 + libmatroska v1.4.9 / Lavf57.83.100

Video
ID : 1
Format : HEVC
Format/Info : High Efficiency Video Coding
Format profile : Main@L4@Main
Codec ID : V_MPEGH/ISO/HEVC
Duration : 1 h 5 min
Bit rate : 6 059 kb/s
Width : 1 920 pixels
Height : 1 080 pixels
Display aspect ratio : 16:9
Frame rate mode : Constant
Frame rate : 25.000 FPS
Color space : YUV
Chroma subsampling : 4:2:0
Bit depth : 8 bits
Bits/(Pixel*Frame) : 0.117
Stream size : 2.78 GiB (96%)
Writing library : x265 2.6:[Linux][GCC 7.3.0][64 bit] 8bit+10bit+12bit
Encoding settings : cpuid=1105919 / frame-threads=2 / wpp / no-pmode / no-pme / no-psnr / no-ssim / log-level=2 / input-csp=1 / input-res=1920×1080 / interlace=0 / total-frames=0 / level-idc=0 / high-tier=1 / uhd-bd=0 / ref=1 / no-allow-non-conformance / no-repeat-headers / annexb / no-aud / no-hrd / info / hash=0 / no-temporal-layers / open-gop / min-keyint=25 / keyint=250 / bframes=3 / b-adapt=0 / b-pyramid / bframe-bias=0 / rc-lookahead=5 / lookahead-slices=6 / scenecut=0 / no-intra-refresh / ctu=32 / min-cu-size=16 / no-rect / no-amp / max-tu-size=32 / tu-inter-depth=1 / tu-intra-depth=1 / limit-tu=0 / rdoq-level=0 / dynamic-rd=0,00 / no-ssim-rd / no-signhide / no-tskip / nr-intra=0 / nr-inter=0 / no-constrained-intra / strong-intra-smoothing / max-merge=2 / limit-refs=0 / no-limit-modes / me=0 / subme=0 / merange=57 / temporal-mvp / no-weightp / no-weightb / no-analyze-src-pics / deblock=0:0 / no-sao / no-sao-non-deblock / rd=2 / early-skip / rskip / fast-intra / no-tskip-fast / no-cu-lossless / no-b-intra / no-splitrd-skip / rdpenalty=0 / psy-rd=2,00 / psy-rdoq=0,00 / no-rd-refine / analysis-reuse-mode=0 / no-lossless / cbqpoffs=0 / crqpoffs=0 / rc=abr / bitrate=6000 / qcomp=0,60 / qpstep=4 / stats-write=0 / stats-read=0 / ipratio=1,40 / pbratio=1,30 / aq-mode=1 / aq-strength=0,00 / cutree / zone-count=0 / no-strict-cbr / qg-size=32 / no-rc-grain / qpmax=69 / qpmin=0 / no-const-vbv / sar=1 / overscan=0 / videoformat=5 / range=0 / colorprim=1 / transfer=1 / colormatrix=1 / chromaloc=0 / display-window=0 / max-cll=0,0 / min-luma=0 / max-luma=255 / log2-max-poc-lsb=8 / vui-timing-info / vui-hrd-info / slices=1 / no-opt-qp-pps / no-opt-ref-list-length-pps / no-multi-pass-opt-rps / scenecut-bias=0,05 / no-opt-cu-delta-qp / no-aq-motion / no-hdr / no-hdr-opt / no-dhdr10-opt / analysis-reuse-level=5 / scale-factor=0 / refine-intra=0 / refine-inter=0 / refine-mv=0 / no-limit-sao / ctu-info=0 / no-lowpass-dct / refine-mv-type=0 / copy-pic=1
Default : Yes
Forced : No
Color range : Limited
Color primaries : BT.709
Transfer characteristics : BT.709
Matrix coefficients : BT.709

Audio
ID : 2
Format : AAC
Format/Info : Advanced Audio Codec
Format profile : LC
Codec ID : A_AAC-2
Duration : 1 h 5 min
Bit rate : 219 kb/s
Channel(s) : 2 channels
Channel positions : Front: L R
Sampling rate : 48.0 kHz
Frame rate : 46.875 FPS (1024 SPF)
Compression mode : Lossy
Delay relative to video : -21 ms
Stream size : 103 MiB (3%)
Language : Russian
Default : Yes
Forced : NoСкриншоты

x

Не пропустите

Бородина против Бузовой [01-82] (2018) WEBRip 720p от Files-x

СКАЧАТЬ TORRENT ФАЙЛ Информация о фильме Название: Бородина против Бузовой Год выпуска: 2018 Жанр: Шоу ...